<?xml version="1.0" standalone="no"?>
<!DOCTYPE svg PUBLIC "-//W3C//DTD SVG 1.1//EN" "http://www.w3.org/Graphics/SVG/1.1/DTD/svg11.dtd" >
<svg xmlns="http://www.w3.org/2000/svg">
<metadata>
This is a custom SVG webfont generated by Font Squirrel.
Copyright   : Created by Nathan Willis with FontForge 20 httpfontforgesfnet
</metadata>
<defs>
<font id="NewsCycleRegular" horiz-adv-x="334" >
<font-face units-per-em="2048" ascent="1638" descent="-410" />
<missing-glyph horiz-adv-x="475" />
<glyph unicode=" "  horiz-adv-x="475" />
<glyph unicode="&#x09;" horiz-adv-x="475" />
<glyph unicode="&#xa0;" horiz-adv-x="475" />
<glyph unicode="!" d="M92 0v150h150v-150h-150zM92 1446h150l-23 -1146h-104z" />
<glyph unicode="&#x22;" horiz-adv-x="577" d="M70 1046l87 250h-65v150h150v-150q-27 -57 -76 -152t-52 -98h-44zM335 1046l87 250h-65v150h150v-150q-27 -57 -76 -152t-52 -98h-44z" />
<glyph unicode="&#x201d;" horiz-adv-x="577" d="M70 1046l87 250h-65v150h150v-150q-27 -57 -76 -152t-52 -98h-44zM335 1046l87 250h-65v150h150v-150q-27 -57 -76 -152t-52 -98h-44z" />
<glyph unicode="&#x201c;" horiz-adv-x="577" d="M70 1046l87 250h-65v150h150v-150q-27 -57 -76 -152t-52 -98h-44zM335 1046l87 250h-65v150h150v-150q-27 -57 -76 -152t-52 -98h-44z" />
<glyph unicode="&#x30e;" horiz-adv-x="577" d="M70 1046l87 250h-65v150h150v-150q-27 -57 -76 -152t-52 -98h-44zM335 1046l87 250h-65v150h150v-150q-27 -57 -76 -152t-52 -98h-44z" />
<glyph unicode="&#x30b;" horiz-adv-x="577" d="M70 1046l87 250h-65v150h150v-150q-27 -57 -76 -152t-52 -98h-44zM335 1046l87 250h-65v150h150v-150q-27 -57 -76 -152t-52 -98h-44z" />
<glyph unicode="&#x2ba;" horiz-adv-x="577" d="M70 1046l87 250h-65v150h150v-150q-27 -57 -76 -152t-52 -98h-44zM335 1046l87 250h-65v150h150v-150q-27 -57 -76 -152t-52 -98h-44z" />
<glyph unicode="#" horiz-adv-x="1328" d="M147 488v124h237v319h-237v124h237v462h132v-462h282v462h132v-462h246v-124h-246v-319h246v-124h-246v-488h-132v488h-282v-488h-132v488h-237zM516 612h282v319h-282v-319z" />
<glyph unicode="$" horiz-adv-x="1201" d="M157 1150q0 76 41 154.5t122 137.5t186 75v47h148v-45q223 -23 325 -223q9 -18 11 -21l-120 -64q-16 51 -52 91q-67 74 -164 91v-555l80 -26q140 -48 238.5 -144.5t98.5 -282.5q0 -93 -40.5 -168.5t-85 -120.5t-120.5 -75.5t-171 -30.5v-203h-148v216q-201 41 -328 204 l-13 18l118 78q1 1 7 -13q18 -37 66.5 -85.5t149.5 -74.5v610q-200 78 -274.5 173.5t-74.5 236.5zM305 1161q0 -144 55.5 -192.5t145.5 -81.5v504q-93 -19 -147 -84t-54 -146zM654 114q134 2 201.5 77t67.5 185.5t-43.5 175t-152.5 109.5l-73 28v-575z" />
<glyph unicode="%" horiz-adv-x="1075" d="M67 66l837 1449l114 -66l-836 -1449zM81 1242q0 106 74.5 180.5t180.5 74.5t180.5 -74.5t74.5 -180.5t-74.5 -180.5t-180.5 -74.5t-180.5 74.5t-74.5 180.5zM177 1242q0 -65 46.5 -111.5t111.5 -46.5t111.5 46.5t46.5 111.5t-46.5 111.5t-111.5 46.5t-111.5 -46.5 t-46.5 -111.5zM512 267q0 106 74.5 180.5t180.5 74.5t180.5 -74.5t74.5 -180.5t-74.5 -180.5t-180.5 -74.5t-180.5 74.5t-74.5 180.5zM608 267q0 -65 46.5 -111.5t111.5 -46.5t111.5 46.5t46.5 111.5t-46.5 111.5t-111.5 46.5t-111.5 -46.5t-46.5 -111.5z" />
<glyph unicode="&#x26;" horiz-adv-x="1407" d="M110 411.5q0 177.5 124 303.5q65 66 187 155q-101 202 -101 339.5t87 232t218 94.5t212 -92q82 -90 82 -231q0 -143 -129 -247q-90 -73 -202 -134q137 -228 362 -470q79 109 101 188t22 162h132q0 -141 -46.5 -246.5t-113.5 -202.5q101 -97 170 -112q33 -7 82 -7v-144 h-82q-49 0 -102 29.5t-153 129.5q-167 -170 -409 -170q-184 0 -312.5 122.5t-128.5 300zM242 416q0 -127 92.5 -215t220.5 -88q164 0 309 147q-240 264 -383 501l-77 -59q-84 -66 -109 -110q-53 -89 -53 -176zM452 1197q0 -98 76 -255q142 80 180 109q92 72 92 181 q0 73 -48 131.5t-124 58.5t-126 -63.5t-50 -161.5z" />
<glyph unicode="'" d="M70 1046l87 250h-65v150h150v-150q-27 -57 -76 -152t-52 -98h-44z" />
<glyph unicode="&#x2032;" d="M70 1046l87 250h-65v150h150v-150q-27 -57 -76 -152t-52 -98h-44z" />
<glyph unicode="&#x2019;" d="M70 1046l87 250h-65v150h150v-150q-27 -57 -76 -152t-52 -98h-44z" />
<glyph unicode="&#x2c8;" d="M70 1046l87 250h-65v150h150v-150q-27 -57 -76 -152t-52 -98h-44z" />
<glyph unicode="&#x2bc;" d="M70 1046l87 250h-65v150h150v-150q-27 -57 -76 -152t-52 -98h-44z" />
<glyph unicode="&#x2b9;" d="M70 1046l87 250h-65v150h150v-150q-27 -57 -76 -152t-52 -98h-44z" />
<glyph unicode="(" horiz-adv-x="546" d="M92 678q0 125 18.5 238t45 201t64.5 179q38 90 68 146q65 124 112 184l19 27l116 -78q-44 -63 -100 -170.5t-94 -205t-69.5 -237.5t-31.5 -268q0 -336 180 -704q59 -120 110 -200l-116 -78l-36 56q-22 35 -77.5 145t-97.5 220t-76.5 265t-34.5 280z" />
<glyph unicode=")" horiz-adv-x="546" d="M92 1575l116 78l20 -27q91 -124 154.5 -273t89.5 -236q64 -212 63.5 -387.5t-34.5 -330.5q-56 -253 -175 -486q-55 -109 -78 -145l-35 -56l-116 78l1 1q112 173 200.5 418.5t88.5 483.5q1 129 -31 269q-50 224 -135 387t-129 226z" />
<glyph unicode="*" horiz-adv-x="688" d="M90 712l29 88l179 -58v188h92v-188l179 58l29 -88l-179 -58l111 -153l-75 -55l-111 153l-111 -153l-75 55l111 153z" />
<glyph unicode="+" horiz-adv-x="707" d="M90 694v92h218v218h92v-218h217v-92h-217v-218h-92v218h-218z" />
<glyph unicode="&#x207a;" horiz-adv-x="707" d="M90 694v92h218v218h92v-218h217v-92h-217v-218h-92v218h-218z" />
<glyph unicode="," d="M70 -250l87 250h-65v150h150v-150q-27 -57 -76 -152t-52 -98h-44z" />
<glyph unicode="-" horiz-adv-x="708" d="M92 694v92h524v-92h-524z" />
<glyph unicode="." d="M92 0v150h150v-150h-150z" />
<glyph unicode="&#x2024;" d="M92 0v150h150v-150h-150z" />
<glyph unicode="/" horiz-adv-x="1003" d="M70 -12l744 1591l108 -51l-743 -1591z" />
<glyph unicode="0" horiz-adv-x="1255" d="M140 741.5q0 113.5 14 219t50 210t90.5 180.5t143 123.5t198.5 47.5t194 -47t136 -123q148 -214 149 -613q0 -557 -283 -705q-86 -45 -195.5 -45t-196.5 45t-142.5 117.5t-92 172.5t-51 202t-14.5 215.5zM288 739q0 -351 106 -503q85 -122 254 -123h1q167 0 241 136 q77 141 77 454q0 346 -59 491q-24 57 -60 106q-73 98 -209 98q-351 0 -351 -659z" />
<glyph unicode="&#x2070;" horiz-adv-x="1255" d="M140 741.5q0 113.5 14 219t50 210t90.5 180.5t143 123.5t198.5 47.5t194 -47t136 -123q148 -214 149 -613q0 -557 -283 -705q-86 -45 -195.5 -45t-196.5 45t-142.5 117.5t-92 172.5t-51 202t-14.5 215.5zM288 739q0 -351 106 -503q85 -122 254 -123h1q167 0 241 136 q77 141 77 454q0 346 -59 491q-24 57 -60 106q-73 98 -209 98q-351 0 -351 -659z" />
<glyph unicode="1" horiz-adv-x="839" d="M106 1400l327 115h106v-1373h220v-142h-612v142h244v1210l-237 -69z" />
<glyph unicode="2" horiz-adv-x="1180" d="M90 0q1 123 18 187q42 151 230 325q90 83 172 143l182 133q74 54 101 82q61 64 85 120t24 126q0 127 -73 203t-223 76q-83 0 -148 -30.5t-101 -78.5q-72 -96 -76 -198h-148q0 125 69.5 227t181.5 157t233 55t219 -54t156 -149t58 -207t-51.5 -199.5t-107 -136.5 t-85.5 -73l-162 -126q-376 -303 -392 -440h777v-142h-939z" />
<glyph unicode="3" horiz-adv-x="1171" d="M70 237l101 87q82 -84 117 -111q106 -81 263 -81q201 0 297 121q50 64 51 154q0 145 -88 229.5t-232 84.5h-213v141h213q133 0 202.5 78.5t69.5 196.5t-90.5 182.5t-202.5 64.5t-208 -45t-143 -106l-96 93q73 84 188 142.5t246.5 58.5t229.5 -51t157.5 -138.5 t59.5 -188.5q0 -159 -99 -276q-44 -52 -89 -81q122 -74 179 -165t58 -210q0 -208 -134 -318t-356 -110q-286 0 -481 248z" />
<glyph unicode="4" horiz-adv-x="1225" d="M70 390v120l656 1005h178v-1001h231v-124h-231v-390h-148v390h-686zM221 514h535v826z" />
<glyph unicode="&#x2074;" horiz-adv-x="1225" d="M70 390v120l656 1005h178v-1001h231v-124h-231v-390h-148v390h-686zM221 514h535v826z" />
<glyph unicode="5" horiz-adv-x="1053" d="M60 276l98 75q20 -58 78 -117q115 -114 233 -114t214 86q122 110 122 339t-151 313q-73 40 -161 40l-1 1q-87 0 -164 -64t-84 -113h-136v790h762v-131h-614v-450q62 58 160 82q42 10 84 9q197 0 325 -135.5t128 -365t-132 -381.5q-133 -150 -331 -150t-340 146 q-72 74 -90 140z" />
<glyph unicode="&#x2075;" horiz-adv-x="1053" d="M60 276l98 75q20 -58 78 -117q115 -114 233 -114t214 86q122 110 122 339t-151 313q-73 40 -161 40l-1 1q-87 0 -164 -64t-84 -113h-136v790h762v-131h-614v-450q62 58 160 82q42 10 84 9q197 0 325 -135.5t128 -365t-132 -381.5q-133 -150 -331 -150t-340 146 q-72 74 -90 140z" />
<glyph unicode="6" horiz-adv-x="1163" d="M110 678q0 398 155.5 617t433.5 219q70 0 152 -32t112 -69l-58 -107q-107 76 -207 76q-185 0 -310.5 -161t-147.5 -477q1 1 12 18l20 28l28 31q110 119 281 119h6q203 0 329 -126.5t126 -335.5q-4 -144 -78.5 -274.5t-211.5 -184.5q-76 -30 -166 -30q-223 0 -349.5 181 t-126.5 508zM251 479q0 -34 27 -115q46 -138 129 -194t158 -56q132 0 231.5 85.5t107.5 278.5q0 156 -87.5 247t-228 91t-232.5 -93q-68 -69 -100 -192q-5 -18 -5 -52z" />
<glyph unicode="&#x2076;" horiz-adv-x="1163" d="M110 678q0 398 155.5 617t433.5 219q70 0 152 -32t112 -69l-58 -107q-107 76 -207 76q-185 0 -310.5 -161t-147.5 -477q1 1 12 18l20 28l28 31q110 119 281 119h6q203 0 329 -126.5t126 -335.5q-4 -144 -78.5 -274.5t-211.5 -184.5q-76 -30 -166 -30q-223 0 -349.5 181 t-126.5 508zM251 479q0 -34 27 -115q46 -138 129 -194t158 -56q132 0 231.5 85.5t107.5 278.5q0 156 -87.5 247t-228 91t-232.5 -93q-68 -69 -100 -192q-5 -18 -5 -52z" />
<glyph unicode="7" horiz-adv-x="1057" d="M84 1376v139h873v-141l-593 -1374h-164l607 1376h-723z" />
<glyph unicode="&#x2077;" horiz-adv-x="1057" d="M84 1376v139h873v-141l-593 -1374h-164l607 1376h-723z" />
<glyph unicode="8" horiz-adv-x="1204" d="M110 400q0 178 164 307q80 63 172 98q-121 42 -198 130t-77 204t60 204t160 135t219 47q180 0 304.5 -106.5t124.5 -264.5q0 -119 -84 -211t-208 -146q285 -123 329 -277q18 -64 18 -121q0 -118 -67.5 -213.5t-174.5 -146t-235.5 -50.5t-244 48.5t-189 144t-73.5 218.5z M242 393.5q0 -83.5 56 -150.5q108 -130 321 -130q84 0 150.5 31t104.5 63q88 75 88 195t-82 190t-206 121l-76 31q-196 -51 -302 -194q-54 -73 -54 -156.5zM303 1136.5q0 -83.5 62.5 -140.5t110.5 -80l112 -54q152 61 200 91q119 73 119 191.5t-89 187.5t-188 69t-168.5 -31 t-114 -90.5t-44.5 -143z" />
<glyph unicode="&#x2078;" horiz-adv-x="1204" d="M110 400q0 178 164 307q80 63 172 98q-121 42 -198 130t-77 204t60 204t160 135t219 47q180 0 304.5 -106.5t124.5 -264.5q0 -119 -84 -211t-208 -146q285 -123 329 -277q18 -64 18 -121q0 -118 -67.5 -213.5t-174.5 -146t-235.5 -50.5t-244 48.5t-189 144t-73.5 218.5z M242 393.5q0 -83.5 56 -150.5q108 -130 321 -130q84 0 150.5 31t104.5 63q88 75 88 195t-82 190t-206 121l-76 31q-196 -51 -302 -194q-54 -73 -54 -156.5zM303 1136.5q0 -83.5 62.5 -140.5t110.5 -80l112 -54q152 61 200 91q119 73 119 191.5t-89 187.5t-188 69t-168.5 -31 t-114 -90.5t-44.5 -143z" />
<glyph unicode="9" horiz-adv-x="1163" d="M110 1025q4 144 78.5 274.5t211.5 184.5q76 30 166 30q223 0 349.5 -181t126.5 -508q0 -398 -155.5 -617t-433.5 -219q-70 0 -152 32t-112 69l58 107q107 -76 207 -76q185 0 310.5 161t147.5 477q-1 -1 -12 -18l-20 -28l-28 -31q-110 -119 -281 -119h-6 q-203 0 -329 126.5t-126 335.5zM248 1025q0 -156 87.5 -247t228 -91t232.5 93q68 69 100 192q5 18 5 52t-27 115q-46 138 -129 194t-158 56q-132 0 -231.5 -85.5t-107.5 -278.5z" />
<glyph unicode="&#x2079;" horiz-adv-x="1163" d="M110 1025q4 144 78.5 274.5t211.5 184.5q76 30 166 30q223 0 349.5 -181t126.5 -508q0 -398 -155.5 -617t-433.5 -219q-70 0 -152 32t-112 69l58 107q107 -76 207 -76q185 0 310.5 161t147.5 477q-1 -1 -12 -18l-20 -28l-28 -31q-110 -119 -281 -119h-6 q-203 0 -329 126.5t-126 335.5zM248 1025q0 -156 87.5 -247t228 -91t232.5 93q68 69 100 192q5 18 5 52t-27 115q-46 138 -129 194t-158 56q-132 0 -231.5 -85.5t-107.5 -278.5z" />
<glyph unicode=":" d="M92 0v150h150v-150h-150zM92 905v150h150v-150h-150z" />
<glyph unicode=";" d="M70 -250l87 250h-65v150h150v-150q-27 -57 -76 -152t-52 -98h-44zM92 905v150h150v-150h-150z" />
<glyph unicode="&#x37e;" d="M70 -250l87 250h-65v150h150v-150q-27 -57 -76 -152t-52 -98h-44zM92 905v150h150v-150h-150z" />
<glyph unicode="&#x3c;" horiz-adv-x="960" d="M64 744l762 640l68 -85l-662 -555l662 -555l-68 -85z" />
<glyph unicode="&#x2039;" horiz-adv-x="960" d="M64 744l762 640l68 -85l-662 -555l662 -555l-68 -85z" />
<glyph unicode="=" horiz-adv-x="797" d="M90 542v92h617v-92h-617zM90 808v92h617v-92h-617z" />
<glyph unicode="&#x3e;" horiz-adv-x="960" d="M64 189l662 555l-662 555l68 85l762 -640l-762 -640z" />
<glyph unicode="&#x203a;" horiz-adv-x="960" d="M64 189l662 555l-662 555l68 85l762 -640l-762 -640z" />
<glyph unicode="?" horiz-adv-x="863" d="M93 1314q81 153 213 187q52 14 136 14t164.5 -55t123 -143t42.5 -179q0 -164 -124 -312l-104 -122q-124 -141 -124 -235v-149h-132v149q0 123 123 269l102 121q123 146 123 261.5t-69 190.5t-139.5 75t-112.5 -15.5t-65 -41.5t-57 -83zM273 0v150h150v-150h-150z" />
<glyph unicode="@" horiz-adv-x="1609" d="M80 631q0 90 24 184q22 93 64 165q121 208 359 300q140 54 284.5 54t275 -53.5t228 -143.5t156 -216.5t58.5 -264.5q0 -410 -216 -486q-45 -16 -101 -16q-112 0 -165 75.5t-53 177.5q-1 0 -11 -19q-22 -43 -80 -91t-146 -48q-151 1 -223 79q-30 33 -56.5 94t-26.5 142.5 t32.5 158.5t84.5 134t120.5 92.5t149 35.5t156.5 -63l21 76h110v-623q0 -51 37.5 -80t79.5 -29t76 36.5t64 125t30 218t-46.5 236t-125.5 183.5t-188.5 122t-230.5 45q-173 0 -331 -85q-204 -110 -267 -348q-24 -90 -24 -189v-7q0 -94 27 -178q56 -177 213 -299.5 t385 -122.5q154 0 243 66l60 -90q5 -3 -31 -24q-60 -35 -116.5 -50.5t-149.5 -15.5t-193.5 22.5t-177.5 62t-140.5 94.5t-107.5 119t-74 136t-43.5 145t-13.5 163zM584 568q0 -81 48 -144t124 -63q115 0 238 143v306q-76 56 -150.5 56t-133.5 -40.5t-92.5 -108.5t-33.5 -149 z" />
<glyph unicode="A" horiz-adv-x="1130" d="M25 0l432 1515h216l432 -1515h-154l-130 478h-509l-133 -478h-154zM346 602h440l-221 787z" />
<glyph unicode="&#x410;" horiz-adv-x="1130" d="M25 0l432 1515h216l432 -1515h-154l-130 478h-509l-133 -478h-154zM346 602h440l-221 787z" />
<glyph unicode="&#x391;" horiz-adv-x="1130" d="M25 0l432 1515h216l432 -1515h-154l-130 478h-509l-133 -478h-154zM346 602h440l-221 787z" />
<glyph unicode="B" horiz-adv-x="1132" d="M135 0v1515h473q183 0 302 -104.5t119 -258.5q0 -254 -178 -326q-31 -12 -77 -26q164 -42 246 -197q44 -85 44 -193q0 -187 -117 -298.5t-339 -111.5h-473zM283 124h325q162 0 238 68q32 28 55 84.5t23 133.5q0 142 -87 229t-229 87h-325v-602zM283 850l325 3 q140 1 212 71q30 30 52.5 88.5t22.5 139.5q0 117 -73.5 178t-213.5 61h-325v-541z" />
<glyph unicode="&#x412;" horiz-adv-x="1132" d="M135 0v1515h473q183 0 302 -104.5t119 -258.5q0 -254 -178 -326q-31 -12 -77 -26q164 -42 246 -197q44 -85 44 -193q0 -187 -117 -298.5t-339 -111.5h-473zM283 124h325q162 0 238 68q32 28 55 84.5t23 133.5q0 142 -87 229t-229 87h-325v-602zM283 850l325 3 q140 1 212 71q30 30 52.5 88.5t22.5 139.5q0 117 -73.5 178t-213.5 61h-325v-541z" />
<glyph unicode="&#x392;" horiz-adv-x="1132" d="M135 0v1515h473q183 0 302 -104.5t119 -258.5q0 -254 -178 -326q-31 -12 -77 -26q164 -42 246 -197q44 -85 44 -193q0 -187 -117 -298.5t-339 -111.5h-473zM283 124h325q162 0 238 68q32 28 55 84.5t23 133.5q0 142 -87 229t-229 87h-325v-602zM283 850l325 3 q140 1 212 71q30 30 52.5 88.5t22.5 139.5q0 117 -73.5 178t-213.5 61h-325v-541z" />
<glyph unicode="C" horiz-adv-x="1174" d="M80 776q0 226 76 414q86 214 256 296q92 46 188 46t163.5 -24.5t113.5 -63.5q99 -84 143.5 -182t57.5 -150l6 -24v-1l-152 -41q-51 362 -314 362q-390 0 -390 -649q0 -278 82 -454q44 -93 122 -145t171 -52q226 0 313 186q41 88 44 169l146 -23q-4 -11 -18.5 -54 t-24.5 -70t-32.5 -73.5t-44.5 -77.5q-131 -181 -347 -181q-189 0 -305 90q-254 196 -254 702z" />
<glyph unicode="&#x421;" horiz-adv-x="1174" d="M80 776q0 226 76 414q86 214 256 296q92 46 188 46t163.5 -24.5t113.5 -63.5q99 -84 143.5 -182t57.5 -150l6 -24v-1l-152 -41q-51 362 -314 362q-390 0 -390 -649q0 -278 82 -454q44 -93 122 -145t171 -52q226 0 313 186q41 88 44 169l146 -23q-4 -11 -18.5 -54 t-24.5 -70t-32.5 -73.5t-44.5 -77.5q-131 -181 -347 -181q-189 0 -305 90q-254 196 -254 702z" />
<glyph unicode="D" horiz-adv-x="1214" d="M135 1515h361q502 0 614 -446q36 -144 36 -294t-21 -255q-46 -233 -199 -376.5t-430 -143.5h-361v1515zM283 124h213q328 0 444 279q58 140 58 342q0 359 -138 512q-54 59 -146.5 96.5t-217.5 37.5h-213v-1267z" />
<glyph unicode="E" horiz-adv-x="1062" d="M135 0v1515h821v-124h-673v-533h483v-124h-483v-601h711v-133h-859z" />
<glyph unicode="&#x415;" horiz-adv-x="1062" d="M135 0v1515h821v-124h-673v-533h483v-124h-483v-601h711v-133h-859z" />
<glyph unicode="&#x395;" horiz-adv-x="1062" d="M135 0v1515h821v-124h-673v-533h483v-124h-483v-601h711v-133h-859z" />
<glyph unicode="F" horiz-adv-x="1024" d="M135 0v1515h821v-124h-673v-533h483v-124h-483v-734h-148z" />
<glyph unicode="G" horiz-adv-x="1246" d="M80 756.5q0 105.5 14 196.5q30 201 116 335q151 244 426 244q141 0 265 -85q145 -99 211 -348l-145 -36q-1 7 -3 19q0 13 -10 49q-34 130 -116 203.5t-198 73.5t-198 -54t-127 -148q-87 -181 -87 -463.5t80 -434.5q105 -200 331 -200q334 0 334 467v16h-337v124h482v-715 h-120v192q-113 -156 -239 -192q-56 -16 -148 -16t-187.5 46t-158.5 122t-105.5 178.5t-61 211.5t-18.5 214.5z" />
<glyph unicode="H" horiz-adv-x="1254" d="M135 0v1515h148v-657h688v657h148v-1515h-148v734h-688v-734h-148z" />
<glyph unicode="&#x41d;" horiz-adv-x="1254" d="M135 0v1515h148v-657h688v657h148v-1515h-148v734h-688v-734h-148z" />
<glyph unicode="&#x397;" horiz-adv-x="1254" d="M135 0v1515h148v-657h688v657h148v-1515h-148v734h-688v-734h-148z" />
<glyph unicode="I" horiz-adv-x="418" d="M135 0v1515h148v-1515h-148z" />
<glyph unicode="&#x4c0;" horiz-adv-x="418" d="M135 0v1515h148v-1515h-148z" />
<glyph unicode="&#x406;" horiz-adv-x="418" d="M135 0v1515h148v-1515h-148z" />
<glyph unicode="&#x399;" horiz-adv-x="418" d="M135 0v1515h148v-1515h-148z" />
<glyph unicode="J" horiz-adv-x="896" d="M25 244l103 53l14 -29q50 -98 152 -142q44 -18 92 -18q122 0 174.5 83.5t52.5 237.5v1086h148v-1086q0 -327 -217 -417q-68 -28 -152.5 -28t-150.5 26.5t-103 59.5t-71 86q-34 52 -42 88z" />
<glyph unicode="&#x408;" horiz-adv-x="896" d="M25 244l103 53l14 -29q50 -98 152 -142q44 -18 92 -18q122 0 174.5 83.5t52.5 237.5v1086h148v-1086q0 -327 -217 -417q-68 -28 -152.5 -28t-150.5 26.5t-103 59.5t-71 86q-34 52 -42 88z" />
<glyph unicode="K" horiz-adv-x="1140" d="M135 0v1515h149v-824l617 824h159l-434 -569l489 -946h-166l-417 822l-248 -327v-495h-149z" />
<glyph unicode="&#x41a;" horiz-adv-x="1140" d="M135 0v1515h149v-824l617 824h159l-434 -569l489 -946h-166l-417 822l-248 -327v-495h-149z" />
<glyph unicode="&#x39a;" horiz-adv-x="1140" d="M135 0v1515h149v-824l617 824h159l-434 -569l489 -946h-166l-417 822l-248 -327v-495h-149z" />
<glyph unicode="L" horiz-adv-x="980" d="M135 0v1515h148v-1373h672v-142h-820z" />
<glyph unicode="M" horiz-adv-x="1457" d="M128 0v1515h268l324 -1163h10l324 1163h268v-1515h-148v1374h-10l-382 -1374h-114l-382 1374h-10v-1374h-148z" />
<glyph unicode="&#x41c;" horiz-adv-x="1457" d="M128 0v1515h268l324 -1163h10l324 1163h268v-1515h-148v1374h-10l-382 -1374h-114l-382 1374h-10v-1374h-148z" />
<glyph unicode="&#x39c;" horiz-adv-x="1457" d="M128 0v1515h268l324 -1163h10l324 1163h268v-1515h-148v1374h-10l-382 -1374h-114l-382 1374h-10v-1374h-148z" />
<glyph unicode="N" horiz-adv-x="1251" d="M128 0v1515h236l611 -1154v1154h148v-1515h-127l-720 1368v-1368h-148z" />
<glyph unicode="&#x39d;" horiz-adv-x="1251" d="M128 0v1515h236l611 -1154v1154h148v-1515h-127l-720 1368v-1368h-148z" />
<glyph unicode="O" horiz-adv-x="1263" d="M80 753q0 115 19 224t62 211t106.5 177.5t159.5 121t211.5 45.5t207.5 -46q168 -85 252.5 -289.5t84.5 -444.5q-1 -439 -227 -652q-123 -116 -315 -116q-111 0 -205 44.5t-158.5 119t-110 174t-66.5 208t-21 223.5zM228 739q0 -119 24 -231q22 -113 70 -204 q48 -92 130 -144t180 -52q186 0 282 142q121 180 121 505t-121 507q-43 64 -113 105t-160 41t-161.5 -36t-118 -96.5t-77 -145.5t-43.5 -178.5t-13 -212.5z" />
<glyph unicode="&#x41e;" horiz-adv-x="1263" d="M80 753q0 115 19 224t62 211t106.5 177.5t159.5 121t211.5 45.5t207.5 -46q168 -85 252.5 -289.5t84.5 -444.5q-1 -439 -227 -652q-123 -116 -315 -116q-111 0 -205 44.5t-158.5 119t-110 174t-66.5 208t-21 223.5zM228 739q0 -119 24 -231q22 -113 70 -204 q48 -92 130 -144t180 -52q186 0 282 142q121 180 121 505t-121 507q-43 64 -113 105t-160 41t-161.5 -36t-118 -96.5t-77 -145.5t-43.5 -178.5t-13 -212.5z" />
<glyph unicode="&#x39f;" horiz-adv-x="1263" d="M80 753q0 115 19 224t62 211t106.5 177.5t159.5 121t211.5 45.5t207.5 -46q168 -85 252.5 -289.5t84.5 -444.5q-1 -439 -227 -652q-123 -116 -315 -116q-111 0 -205 44.5t-158.5 119t-110 174t-66.5 208t-21 223.5zM228 739q0 -119 24 -231q22 -113 70 -204 q48 -92 130 -144t180 -52q186 0 282 142q121 180 121 505t-121 507q-43 64 -113 105t-160 41t-161.5 -36t-118 -96.5t-77 -145.5t-43.5 -178.5t-13 -212.5z" />
<glyph unicode="P" horiz-adv-x="1136" d="M135 0v1515h529q236 0 346 -186q58 -98 58 -195.5t-22 -170t-67.5 -135t-126.5 -99.5t-188 -37h-381v-692h-148zM283 816h280q162 0 259.5 71t97.5 217t-98 216.5t-259 70.5h-280v-575z" />
<glyph unicode="&#x420;" horiz-adv-x="1136" d="M135 0v1515h529q236 0 346 -186q58 -98 58 -195.5t-22 -170t-67.5 -135t-126.5 -99.5t-188 -37h-381v-692h-148zM283 816h280q162 0 259.5 71t97.5 217t-98 216.5t-259 70.5h-280v-575z" />
<glyph unicode="&#x3a1;" horiz-adv-x="1136" d="M135 0v1515h529q236 0 346 -186q58 -98 58 -195.5t-22 -170t-67.5 -135t-126.5 -99.5t-188 -37h-381v-692h-148zM283 816h280q162 0 259.5 71t97.5 217t-98 216.5t-259 70.5h-280v-575z" />
<glyph unicode="Q" horiz-adv-x="1263" d="M80 743.5q0 124.5 19 233.5t62 211t106.5 177.5t159.5 121t211.5 45.5t207.5 -46q168 -85 252.5 -289.5t84.5 -457.5t-107 -469q-53 -106 -142 -181t-204 -98q2 -89 28.5 -113.5t96.5 -24.5h264v-124l-129 -1q-270 0 -331 39t-72 119q-5 40 -5 102q-120 17 -218 90 t-158.5 180t-93 234t-32.5 251.5zM228 739q0 -119 23.5 -231.5t71 -203.5t129.5 -144q82 -52 180 -52q186 0 282 142q121 180 121 505t-121 507q-43 64 -113 105t-160 41t-161.5 -36t-118 -96.5t-77 -145.5t-43.5 -178.5t-13 -212.5z" />
<glyph unicode="R" horiz-adv-x="1093" d="M135 0v1515h510q239 0 358 -186q65 -101 65 -223t-68 -240q-68 -116 -224 -150l286 -716h-162l-276 692h-341v-692h-148zM283 816h376q105 0 183 70t78 224q0 206 -222 264q-66 17 -144 17h-271v-575z" />
<glyph unicode="S" horiz-adv-x="1033" d="M40 368l137 48q1 0 4.5 -17t13 -44t25.5 -60q33 -69 117 -128t224.5 -59t209.5 77t69 189.5t-43.5 177t-152.5 109.5q-31 13 -84 31l-95 33q-246 82 -332 210q-59 88 -59 218.5t112 252.5q52 56 134.5 91t173 35t160.5 -24q114 -40 188 -144q34 -46 49 -84l45 -115 l-130 -50q-2 5 -9.5 31.5t-13 43.5t-19.5 47q-23 52 -55.5 85.5t-79.5 59.5t-130 26q-123 0 -200 -72.5t-77 -198t68 -178.5q54 -43 122 -67l51 -20l147 -46q233 -72 319 -211q59 -95 59 -211t-62 -224q-112 -196 -372 -196q-222 0 -374 151q-85 84 -132 212z" />
<glyph unicode="&#x405;" horiz-adv-x="1033" d="M40 368l137 48q1 0 4.5 -17t13 -44t25.5 -60q33 -69 117 -128t224.5 -59t209.5 77t69 189.5t-43.5 177t-152.5 109.5q-31 13 -84 31l-95 33q-246 82 -332 210q-59 88 -59 218.5t112 252.5q52 56 134.5 91t173 35t160.5 -24q114 -40 188 -144q34 -46 49 -84l45 -115 l-130 -50q-2 5 -9.5 31.5t-13 43.5t-19.5 47q-23 52 -55.5 85.5t-79.5 59.5t-130 26q-123 0 -200 -72.5t-77 -198t68 -178.5q54 -43 122 -67l51 -20l147 -46q233 -72 319 -211q59 -95 59 -211t-62 -224q-112 -196 -372 -196q-222 0 -374 151q-85 84 -132 212z" />
<glyph unicode="T" horiz-adv-x="1062" d="M25 1391v124h1012v-124h-432v-1391h-148v1391h-432z" />
<glyph unicode="&#x422;" horiz-adv-x="1062" d="M25 1391v124h1012v-124h-432v-1391h-148v1391h-432z" />
<glyph unicode="&#x3a4;" horiz-adv-x="1062" d="M25 1391v124h1012v-124h-432v-1391h-148v1391h-432z" />
<glyph unicode="U" horiz-adv-x="1213" d="M135 455v1060h148v-1060q0 -135 66 -229q83 -118 260 -118q87 0 151 28t96 66q79 96 81 253l-6 1060h154v-1060q-1 -163 -89 -293q-121 -178 -387 -178q-319 0 -429 254q-45 104 -45 217z" />
<glyph unicode="V" horiz-adv-x="1104" d="M25 1515h154l373 -1256l373 1256h154l-450 -1515h-154z" />
<glyph unicode="W" horiz-adv-x="1614" d="M25 1515h154l259 -1198h10l274 1198h170l274 -1198h10l259 1198h154l-351 -1515h-152l-274 1198h-10l-274 -1198h-152z" />
<glyph unicode="X" horiz-adv-x="1083" d="M25 0l437 773l-419 742h154l359 -634l348 634h154l-428 -765l425 -750h-156l-359 636l-359 -636h-156z" />
<glyph unicode="&#x425;" horiz-adv-x="1083" d="M25 0l437 773l-419 742h154l359 -634l348 634h154l-428 -765l425 -750h-156l-359 636l-359 -636h-156z" />
<glyph unicode="&#x3a7;" horiz-adv-x="1083" d="M25 0l437 773l-419 742h154l359 -634l348 634h154l-428 -765l425 -750h-156l-359 636l-359 -636h-156z" />
<glyph unicode="Y" horiz-adv-x="1122" d="M25 1515h154l382 -713l382 713h154l-462 -855v-660h-148v660z" />
<glyph unicode="&#x4ae;" horiz-adv-x="1122" d="M25 1515h154l382 -713l382 713h154l-462 -855v-660h-148v660z" />
<glyph unicode="&#x3d2;" horiz-adv-x="1122" d="M25 1515h154l382 -713l382 713h154l-462 -855v-660h-148v660z" />
<glyph unicode="&#x3a5;" horiz-adv-x="1122" d="M25 1515h154l382 -713l382 713h154l-462 -855v-660h-148v660z" />
<glyph unicode="Z" horiz-adv-x="1142" d="M68 0v107l825 1280h-771v132l952 -4v-123l-794 -1250h788v-142h-1000z" />
<glyph unicode="&#x396;" horiz-adv-x="1142" d="M68 0v107l825 1280h-771v132l952 -4v-123l-794 -1250h788v-142h-1000z" />
<glyph unicode="[" horiz-adv-x="607" d="M100 -285v1923h437v-92h-289v-1739h289v-92h-437z" />
<glyph unicode="\" horiz-adv-x="783" d="M-139 1528l108 51l744 -1591l-109 -51z" />
<glyph unicode="]" horiz-adv-x="607" d="M100 -193h289v1739h-289v92h437v-1923h-437v92z" />
<glyph unicode="^" horiz-adv-x="624" d="M90 1197l222 222l222 -222l-66 -64l-156 156l-157 -157z" />
<glyph unicode="&#x302;" horiz-adv-x="624" d="M90 1197l222 222l222 -222l-66 -64l-156 156l-157 -157z" />
<glyph unicode="&#x2c6;" horiz-adv-x="624" d="M90 1197l222 222l222 -222l-66 -64l-156 156l-157 -157z" />
<glyph unicode="&#x2c4;" horiz-adv-x="624" d="M90 1197l222 222l222 -222l-66 -64l-156 156l-157 -157z" />
<glyph unicode="_" horiz-adv-x="1112" d="M92 0v92h928v-92h-928z" />
<glyph unicode="`" horiz-adv-x="683" d="M179 1368l87 87l295 -295l-66 -65z" />
<glyph unicode="&#x2035;" horiz-adv-x="683" d="M179 1368l87 87l295 -295l-66 -65z" />
<glyph unicode="&#x2018;" horiz-adv-x="683" d="M179 1368l87 87l295 -295l-66 -65z" />
<glyph unicode="&#x1fef;" horiz-adv-x="683" d="M179 1368l87 87l295 -295l-66 -65z" />
<glyph unicode="a" horiz-adv-x="928" d="M72 259.5q0 71.5 18 125t56 95.5q79 85 211 131.5t324 84.5q0 158 -57.5 208t-171.5 50t-206 -96q-38 -40 -54 -70l-95 63q112 215 381 215q335 0 335 -367v-549q0 -29 11 -79t20 -69h-133q-30 15 -30 168q-141 -181 -320 -181t-252 132q-37 67 -37 138.5zM204 254 q0 -74 52 -113.5t116 -39.5q110 0 191.5 61.5t117.5 104.5v317q-190 -49 -225 -60q-176 -57 -227 -150q-25 -46 -25 -120z" />
<glyph unicode="&#x430;" horiz-adv-x="928" d="M72 259.5q0 71.5 18 125t56 95.5q79 85 211 131.5t324 84.5q0 158 -57.5 208t-171.5 50t-206 -96q-38 -40 -54 -70l-95 63q112 215 381 215q335 0 335 -367v-549q0 -29 11 -79t20 -69h-133q-30 15 -30 168q-141 -181 -320 -181t-252 132q-37 67 -37 138.5zM204 254 q0 -74 52 -113.5t116 -39.5q110 0 191.5 61.5t117.5 104.5v317q-190 -49 -225 -60q-176 -57 -227 -150q-25 -46 -25 -120z" />
<glyph unicode="b" horiz-adv-x="994" d="M94 0q26 55 26 146v1369h132v-598q19 41 99 95t172 54q180 0 288 -154.5t108 -401.5q-1 -145 -57 -276q-103 -240 -326 -245q-146 3 -250 129q-20 25 -34 48q0 -154 -25 -166h-133zM252 278q101 -138 178 -164q40 -13 98 -13h4q58 0 108 31q146 88 147 378 q0 444 -298 444q-131 0 -237 -151v-525z" />
<glyph unicode="c" horiz-adv-x="926" d="M75 520q0 546 425 546q104 0 176 -50q108 -76 150 -203l-106 -48q-2 20 -21.5 59t-41.5 64t-63.5 45.5t-93.5 20.5q-293 0 -293 -425q0 -206 77.5 -317t215.5 -111h3q92 0 150 67t79 118l9 22l104 -50q0 -21 -38.5 -78.5t-76 -96t-99 -66.5t-131.5 -28 q-218 0 -321.5 139.5t-103.5 391.5z" />
<glyph unicode="&#x1d9c;" horiz-adv-x="926" d="M75 520q0 546 425 546q104 0 176 -50q108 -76 150 -203l-106 -48q-2 20 -21.5 59t-41.5 64t-63.5 45.5t-93.5 20.5q-293 0 -293 -425q0 -206 77.5 -317t215.5 -111h3q92 0 150 67t79 118l9 22l104 -50q0 -21 -38.5 -78.5t-76 -96t-99 -66.5t-131.5 -28 q-218 0 -321.5 139.5t-103.5 391.5z" />
<glyph unicode="&#x441;" horiz-adv-x="926" d="M75 520q0 546 425 546q104 0 176 -50q108 -76 150 -203l-106 -48q-2 20 -21.5 59t-41.5 64t-63.5 45.5t-93.5 20.5q-293 0 -293 -425q0 -206 77.5 -317t215.5 -111h3q92 0 150 67t79 118l9 22l104 -50q0 -21 -38.5 -78.5t-76 -96t-99 -66.5t-131.5 -28 q-218 0 -321.5 139.5t-103.5 391.5z" />
<glyph unicode="d" horiz-adv-x="984" d="M75 510q0 147 47.5 273t139.5 204.5t196.5 78.5t184.5 -54t99 -95v598h132v-1369q0 -30 8.5 -78.5t17.5 -67.5h-133q-25 12 -25 166q-102 -177 -284 -177q-91 0 -166 45.5t-121 120.5q-96 157 -96 355zM207 510q1 -178 65 -294q63 -115 205 -115h2q95 0 150 49t113 128 v525q-106 151 -237 151q-298 0 -298 -444z" />
<glyph unicode="e" horiz-adv-x="925" d="M75 500q0 99 14 180.5t37 138.5q64 159 200 217q71 30 135 30t109 -12q44 -10 96 -46q174 -120 175 -495h-634q-1 -265 135 -363q67 -48 149 -49q154 0 262 191l91 -63q-39 -72 -102 -130q-120 -110 -237 -110t-199 43t-131 116t-74.5 163t-25.5 189zM213 625h496 q-2 107 -46 207q-24 54 -72.5 88t-114.5 34q-176 0 -233 -162q-28 -79 -30 -167z" />
<glyph unicode="&#x435;" horiz-adv-x="925" d="M75 500q0 99 14 180.5t37 138.5q64 159 200 217q71 30 135 30t109 -12q44 -10 96 -46q174 -120 175 -495h-634q-1 -265 135 -363q67 -48 149 -49q154 0 262 191l91 -63q-39 -72 -102 -130q-120 -110 -237 -110t-199 43t-131 116t-74.5 163t-25.5 189zM213 625h496 q-2 107 -46 207q-24 54 -72.5 88t-114.5 34q-176 0 -233 -162q-28 -79 -30 -167z" />
<glyph unicode="f" horiz-adv-x="570" d="M13 943v112h173v223q0 164 141 220q66 26 143.5 26t86.5 -9v-111h-89q-150 0 -150 -126v-223h239v-112h-239v-943h-132v943h-173z" />
<glyph unicode="&#x1da0;" horiz-adv-x="570" d="M13 943v112h173v223q0 164 141 220q66 26 143.5 26t86.5 -9v-111h-89q-150 0 -150 -126v-223h239v-112h-239v-943h-132v943h-173z" />
<glyph unicode="g" horiz-adv-x="1005" d="M42 -188q0 54 15 84t45.5 54t53 38.5t61.5 34t47 24.5q-82 17 -124 60t-42 79q0 70 49 114t78 61.5t32 19.5q-60 51 -105.5 133.5t-45.5 181t54.5 185.5t146 136t177.5 49t138.5 -21t112.5 -62q76 62 131.5 72.5t106.5 12.5v-120h-2q-171 0 -171 -31q51 -94 63.5 -138.5 t12.5 -89.5q0 -161 -103.5 -272.5t-268.5 -111.5q-87 0 -178 38q-8 -7 -36 -27q-60 -43 -60 -86.5t37 -58.5q83 -34 205.5 -35t277.5 -38q97 -23 158.5 -92t61.5 -165q0 -286 -479 -286q-169 0 -301 61q-67 31 -107.5 86.5t-40.5 109.5zM174 -178.5q0 -87.5 98.5 -120.5 t158 -33.5t86 -0.5t46 0.5t60.5 4.5t67 10q148 37 148 152q0 60 -40 95.5t-101.5 50.5t-121.5 21.5t-114.5 9t-65.5 5.5q-106 -40 -139 -59q-82 -48 -82 -135.5zM238 689q0 -117 70 -194.5t190.5 -77.5t183 79t62.5 192t-61.5 189.5t-178.5 76.5t-191.5 -74t-74.5 -191z" />
<glyph unicode="h" horiz-adv-x="979" d="M129 0v1515h132v-633q147 142 243 170q48 14 102 14q115 0 189 -70t74 -210v-786h-132v786q0 75 -53.5 121.5t-115.5 46.5q-148 0 -307 -173v-781h-132z" />
<glyph unicode="&#x2b0;" horiz-adv-x="979" d="M129 0v1515h132v-633q147 142 243 170q48 14 102 14q115 0 189 -70t74 -210v-786h-132v786q0 75 -53.5 121.5t-115.5 46.5q-148 0 -307 -173v-781h-132z" />
<glyph unicode="i" horiz-adv-x="462" d="M156 1188v150h150v-150h-150zM165 -2v1057h132v-1057h-132z" />
<glyph unicode="&#x2071;" horiz-adv-x="462" d="M156 1188v150h150v-150h-150zM165 -2v1057h132v-1057h-132z" />
<glyph unicode="&#x456;" horiz-adv-x="462" d="M156 1188v150h150v-150h-150zM165 -2v1057h132v-1057h-132z" />
<glyph unicode="j" horiz-adv-x="362" d="M-63 -225q97 0 140 34t43 162v1084h132v-1055q0 -168 -37.5 -229t-65.5 -75q-65 -33 -165 -33h-39zM111 1188v150h150v-150h-150z" />
<glyph unicode="&#x458;" horiz-adv-x="362" d="M-63 -225q97 0 140 34t43 162v1084h132v-1055q0 -168 -37.5 -229t-65.5 -75q-65 -33 -165 -33h-39zM111 1188v150h150v-150h-150z" />
<glyph unicode="&#x2b2;" horiz-adv-x="362" d="M-63 -225q97 0 140 34t43 162v1084h132v-1055q0 -168 -37.5 -229t-65.5 -75q-65 -33 -165 -33h-39zM111 1188v150h150v-150h-150z" />
<glyph unicode="k" horiz-adv-x="911" d="M130 0v1515h141v-971l395 511h158l-276 -359l338 -696h-146l-282 582l-187 -232v-350h-141z" />
<glyph unicode="l" horiz-adv-x="392" d="M129 -2v1517h132v-1517h-132z" />
<glyph unicode="&#x2e1;" horiz-adv-x="392" d="M129 -2v1517h132v-1517h-132z" />
<glyph unicode="m" horiz-adv-x="1577" d="M120 1055h132v-174q138 138 243 170q49 15 123 15t142.5 -48t90.5 -145q145 145 249 177q50 16 104 16q115 0 189 -70t74 -210v-786h-132v786q0 75 -53.5 121.5t-115.5 46.5q-147 0 -306 -173v-781h-132v786q0 75 -53.5 121.5t-115.5 46.5q-148 0 -307 -173v-781h-132 v1055z" />
<glyph unicode="n" horiz-adv-x="970" d="M120 0v1055h132v-173q88 87 167 135.5t186 48.5t181 -70t74 -210v-786h-132v786q0 75 -53.5 121.5t-115.5 46.5q-148 0 -307 -173v-781h-132z" />
<glyph unicode="o" horiz-adv-x="972" d="M75 534.5q0 241.5 108.5 386.5t303.5 145t302.5 -146t107.5 -390t-108.5 -393t-303.5 -149t-302.5 152.5t-107.5 394zM207 528q1 -317 165 -402q50 -26 115 -26t115 26q162 84 163 401q0 427 -279 427t-279 -426z" />
<glyph unicode="&#x43e;" horiz-adv-x="972" d="M75 534.5q0 241.5 108.5 386.5t303.5 145t302.5 -146t107.5 -390t-108.5 -393t-303.5 -149t-302.5 152.5t-107.5 394zM207 528q1 -317 165 -402q50 -26 115 -26t115 26q162 84 163 401q0 427 -279 427t-279 -426z" />
<glyph unicode="&#x3bf;" horiz-adv-x="972" d="M75 534.5q0 241.5 108.5 386.5t303.5 145t302.5 -146t107.5 -390t-108.5 -393t-303.5 -149t-302.5 152.5t-107.5 394zM207 528q1 -317 165 -402q50 -26 115 -26t115 26q162 84 163 401q0 427 -279 427t-279 -426z" />
<glyph unicode="p" horiz-adv-x="1015" d="M129 1055h132v-164q24 45 79 90q103 85 217 85q210 0 320 -230q63 -132 63 -289q0 -275 -135 -439q-98 -119 -261 -119q-92 0 -178 55.5t-105 95.5v-551h-132v1466zM261 254q46 -66 112 -110q64 -43 122 -43h3h9q54 0 91 11q93 26 151.5 128t58.5 329.5t-116 329.5 q-62 55 -156 55q-126 0 -220 -106q-24 -28 -55 -69v-525z" />
<glyph unicode="&#x440;" horiz-adv-x="1015" d="M129 1055h132v-164q24 45 79 90q103 85 217 85q210 0 320 -230q63 -132 63 -289q0 -275 -135 -439q-98 -119 -261 -119q-92 0 -178 55.5t-105 95.5v-551h-132v1466zM261 254q46 -66 112 -110q64 -43 122 -43h3h9q54 0 91 11q93 26 151.5 128t58.5 329.5t-116 329.5 q-62 55 -156 55q-126 0 -220 -106q-24 -28 -55 -69v-525z" />
<glyph unicode="&#x3f1;" horiz-adv-x="1015" d="M129 1055h132v-164q24 45 79 90q103 85 217 85q210 0 320 -230q63 -132 63 -289q0 -275 -135 -439q-98 -119 -261 -119q-92 0 -178 55.5t-105 95.5v-551h-132v1466zM261 254q46 -66 112 -110q64 -43 122 -43h3h9q54 0 91 11q93 26 151.5 128t58.5 329.5t-116 329.5 q-62 55 -156 55q-126 0 -220 -106q-24 -28 -55 -69v-525z" />
<glyph unicode="&#x3c1;" horiz-adv-x="1015" d="M129 1055h132v-164q24 45 79 90q103 85 217 85q210 0 320 -230q63 -132 63 -289q0 -275 -135 -439q-98 -119 -261 -119q-92 0 -178 55.5t-105 95.5v-551h-132v1466zM261 254q46 -66 112 -110q64 -43 122 -43h3h9q54 0 91 11q93 26 151.5 128t58.5 329.5t-116 329.5 q-62 55 -156 55q-126 0 -220 -106q-24 -28 -55 -69v-525z" />
<glyph unicode="q" horiz-adv-x="996" d="M75 543v9q0 74 15 144q32 153 127 261.5t239.5 108.5t261.5 -127q24 -26 36 -48l17 164h115v-1466h-132v551q-19 -40 -105 -95.5t-172.5 -55.5t-154 32t-112.5 86.5t-76 127t-45 151t-14 157.5zM269 234q27 -50 67 -80q68 -53 152 -53h3q156 0 263 153v525 q-60 82 -104 115q-77 60 -171 60q-95 0 -157 -55q-116 -102 -116 -328q0 -228 63 -337z" />
<glyph unicode="r" horiz-adv-x="639" d="M120 0v1055h132v-284q47 104 72 143q98 152 254 152q12 0 36 -2v-112q-68 -9 -113 -25t-88 -53q-75 -63 -161 -247v-627h-132z" />
<glyph unicode="&#x2b3;" horiz-adv-x="639" d="M120 0v1055h132v-284q47 104 72 143q98 152 254 152q12 0 36 -2v-112q-68 -9 -113 -25t-88 -53q-75 -63 -161 -247v-627h-132z" />
<glyph unicode="s" horiz-adv-x="878" d="M80 200l99 64q53 -82 118 -122.5t161 -40.5t152 48.5t56 112.5q0 114 -76 158t-148 62t-114 32q-98 34 -166 100t-68 182.5t93.5 193t251.5 76.5t276 -123q22 -23 37 -45l-91 -68q-7 7 -28 29.5t-27 28.5l-26 21q-18 17 -30 21l-34 12q-32 12 -108 12t-131 -43.5 t-55 -95.5q0 -92 64.5 -133t141 -64t101 -31t66 -24.5t65.5 -31.5q75 -48 106.5 -103.5t31.5 -135.5q0 -133 -101 -218t-234 -85t-223.5 50.5t-159.5 160.5z" />
<glyph unicode="&#x455;" horiz-adv-x="878" d="M80 200l99 64q53 -82 118 -122.5t161 -40.5t152 48.5t56 112.5q0 114 -76 158t-148 62t-114 32q-98 34 -166 100t-68 182.5t93.5 193t251.5 76.5t276 -123q22 -23 37 -45l-91 -68q-7 7 -28 29.5t-27 28.5l-26 21q-18 17 -30 21l-34 12q-32 12 -108 12t-131 -43.5 t-55 -95.5q0 -92 64.5 -133t141 -64t101 -31t66 -24.5t65.5 -31.5q75 -48 106.5 -103.5t31.5 -135.5q0 -133 -101 -218t-234 -85t-223.5 50.5t-159.5 160.5z" />
<glyph unicode="&#x2e2;" horiz-adv-x="878" d="M80 200l99 64q53 -82 118 -122.5t161 -40.5t152 48.5t56 112.5q0 114 -76 158t-148 62t-114 32q-98 34 -166 100t-68 182.5t93.5 193t251.5 76.5t276 -123q22 -23 37 -45l-91 -68q-7 7 -28 29.5t-27 28.5l-26 21q-18 17 -30 21l-34 12q-32 12 -108 12t-131 -43.5 t-55 -95.5q0 -92 64.5 -133t141 -64t101 -31t66 -24.5t65.5 -31.5q75 -48 106.5 -103.5t31.5 -135.5q0 -133 -101 -218t-234 -85t-223.5 50.5t-159.5 160.5z" />
<glyph unicode="t" horiz-adv-x="606" d="M36 943v112h178v385h132v-385h242v-112h-242v-669q0 -101 31 -138t102 -37q29 0 69 5t40 6v-99q-66 -24 -128.5 -24t-85.5 3q-22 4 -56 20q-104 51 -104 264v669h-178z" />
<glyph unicode="u" horiz-adv-x="979" d="M129 269v786h132v-786q0 -75 53.5 -121.5t115.5 -46.5q148 0 307 173v781h132v-1055h-132v174q-140 -138 -243 -170q-49 -15 -102 -15q-115 0 -189 70t-74 210z" />
<glyph unicode="v" horiz-adv-x="901" d="M25 1055h138l278 -909h19l278 909h138l-324 -1055h-203z" />
<glyph unicode="w" horiz-adv-x="1316" d="M25 1055h123l232 -795l208 795h120l226 -800l222 800h135l-301 -1055h-118l-224 809l-201 -809h-135z" />
<glyph unicode="&#x2b7;" horiz-adv-x="1316" d="M25 1055h123l232 -795l208 795h120l226 -800l222 800h135l-301 -1055h-118l-224 809l-201 -809h-135z" />
<glyph unicode="x" horiz-adv-x="870" d="M25 0l330 544l-320 511h148l245 -390l256 390h148l-332 -505l345 -550h-148l-267 425l-257 -425h-148z" />
<glyph unicode="&#x445;" horiz-adv-x="870" d="M25 0l330 544l-320 511h148l245 -390l256 390h148l-332 -505l345 -550h-148l-267 425l-257 -425h-148z" />
<glyph unicode="&#x3c7;" horiz-adv-x="870" d="M25 0l330 544l-320 511h148l245 -390l256 390h148l-332 -505l345 -550h-148l-267 425l-257 -425h-148z" />
<glyph unicode="&#x2e3;" horiz-adv-x="870" d="M25 0l330 544l-320 511h148l245 -390l256 390h148l-332 -505l345 -550h-148l-267 425l-257 -425h-148z" />
<glyph unicode="y" horiz-adv-x="905" d="M25 1055h142l299 -859l280 859h134l-368 -1119q-56 -171 -116 -234.5t-121.5 -79t-124.5 -15.5t-123 8l10 121q36 -17 96 -17t99 15.5t64 39.5q87 86 108 223z" />
<glyph unicode="&#x443;" horiz-adv-x="905" d="M25 1055h142l299 -859l280 859h134l-368 -1119q-56 -171 -116 -234.5t-121.5 -79t-124.5 -15.5t-123 8l10 121q36 -17 96 -17t99 15.5t64 39.5q87 86 108 223z" />
<glyph unicode="&#x2b8;" horiz-adv-x="905" d="M25 1055h142l299 -859l280 859h134l-368 -1119q-56 -171 -116 -234.5t-121.5 -79t-124.5 -15.5t-123 8l10 121q36 -17 96 -17t99 15.5t64 39.5q87 86 108 223z" />
<glyph unicode="z" horiz-adv-x="779" d="M25 0v85l560 858h-507v112h676v-74l-568 -861h568v-120h-729z" />
<glyph unicode="&#x1dbb;" horiz-adv-x="779" d="M25 0v85l560 858h-507v112h676v-74l-568 -861h568v-120h-729z" />
<glyph unicode="{" horiz-adv-x="772" d="M80 614v122q193 0 193 245q0 36 -15 73q-45 111 -45 212q0 368 381 372v-105q-66 0 -120 -25t-84 -64q-63 -80 -63 -159q0 -23 30 -125.5t30 -208t-42 -174t-138 -102.5q96 -34 138 -102.5t42 -174t-30 -208t-30 -132.5t16.5 -72t47 -80.5t84 -63.5t119.5 -25v-105 q-381 4 -381 372q0 101 45 212q15 37 15 73q0 245 -193 245z" />
<glyph unicode="|" horiz-adv-x="348" d="M100 -132v1695h148v-1695h-148z" />
<glyph unicode="&#x1c0;" horiz-adv-x="348" d="M100 -132v1695h148v-1695h-148z" />
<glyph unicode="}" horiz-adv-x="772" d="M80 -183q66 0 120 25t84 64q63 80 63 159q0 23 -30 125.5t-30 208t42 174t138 102.5q-96 34 -138 102.5t-42 174t30 208t30 132.5t-16.5 72t-47 80.5t-84 63.5t-119.5 25v105q381 -4 381 -372q0 -101 -45 -212q-15 -37 -15 -73q0 -245 193 -245v-122q-193 0 -193 -245 q0 -36 15 -73q45 -111 45 -212q0 -368 -381 -372v105z" />
<glyph unicode="~" horiz-adv-x="789" d="M92 1182q61 130 175 130q82 0 140 -56.5t121 -56.5t100 86l69 -40q-62 -130 -175 -130q-80 0 -139.5 56.5t-122 56.5t-99.5 -86z" />
<glyph unicode="&#x303;" horiz-adv-x="789" d="M92 1182q61 130 175 130q82 0 140 -56.5t121 -56.5t100 86l69 -40q-62 -130 -175 -130q-80 0 -139.5 56.5t-122 56.5t-99.5 -86z" />
<glyph unicode="&#xa1;" d="M92 -168l23 1146h104l23 -1146h-150zM92 1128v150h150v-150h-150z" />
<glyph unicode="&#xa2;" horiz-adv-x="970" d="M110 529.5q0 479.5 340 530.5v221h132v-218q62 -8 113.5 -36.5t95.5 -81.5q45 -54 63 -109l7 -23l-106 -48q-15 95 -99 153q-32 22 -74 31v-842q127 33 194 201l104 -50q0 -16 -34 -69t-66 -89q-80 -90 -198 -108v-228h-132v231q-340 55 -340 534.5zM242 529 q0 -171 54.5 -277.5t153.5 -138.5v830q-208 -53 -208 -414z" />
<glyph unicode="&#xa3;" horiz-adv-x="1153" d="M42 768h135v111q0 325 77 455t205 169q73 22 180 22t111 -10v-112q-68 2 -136 2t-132 -28.5t-100.5 -95t-50.5 -160.5t-14 -242v-111h325v-135h-325v-126q0 -97 -8.5 -219t-23.5 -150h327q238 0 300 66q10 11 10 17l78 -88q-61 -133 -388 -133h-467v138q13 34 22.5 154.5 t9.5 214.5v126h-135v135z" />
<glyph unicode="&#xa4;" horiz-adv-x="688" d="M43 498l100 100q-45 64 -45 146t44 148l-99 99l65 65l98 -98q64 48 148 48t147 -49l99 99l65 -65l-100 -100q44 -67 44 -147t-44 -146l100 -100l-65 -65l-98 98q-66 -48 -148 -48t-148 48l-98 -98zM198 745q0 -65 44 -113t110 -48t110.5 48.5t44.5 115.5q0 62 -43 109 q-44 48 -110 48t-111 -47.5t-45 -112.5z" />
<glyph unicode="&#xa5;" horiz-adv-x="1122" d="M25 1515h154l382 -713l382 713h154l-462 -855h240v-92h-240v-174h240v-92h-240v-302h-148v302h-229v92h229v174h-229v92h229z" />
<glyph unicode="&#xa6;" horiz-adv-x="348" d="M100 -132v778h148v-778h-148zM100 778v785h148v-785h-148z" />
<glyph unicode="&#xa7;" horiz-adv-x="918" d="M100 200l99 64q53 -82 118 -122.5t161 -40.5t152 48.5t56 112.5q0 114 -75.5 158.5t-148.5 61.5q-72 18 -114 32q-98 34 -166 100t-68 161t45 162q-45 63 -45 141q0 129 93.5 205.5t251.5 76.5t276 -123q22 -23 37 -45l-91 -68q-7 7 -28 29.5t-27 28.5l-26 21 q-18 17 -30 21l-34 12q-32 12 -108 12t-131 -43.5t-55 -95.5q0 -92 64.5 -133t141 -64t100.5 -31l66 -25q62 -24 105 -59q99 -79 99 -210q0 -80 -40 -147q40 -63 40 -148q0 -133 -101 -218t-234 -85t-223.5 50.5t-159.5 160.5zM242 796q0 -73 64.5 -114t189 -78.5 t186.5 -74.5q4 24 4 57.5t-22 71.5t-75.5 69.5t-157.5 56t-179 70.5q-10 -25 -10 -58z" />
<glyph unicode="&#xa8;" horiz-adv-x="653" d="M92 1203v150h150v-150h-150zM411 1203v150h150v-150h-150z" />
<glyph unicode="&#x308;" horiz-adv-x="653" d="M92 1203v150h150v-150h-150zM411 1203v150h150v-150h-150z" />
<glyph unicode="&#xa9;" horiz-adv-x="1142" d="M102 744q0 194 138 332t332 138t332 -138t138 -332t-138 -332t-332 -138t-332 138t-138 332zM167 744q0 -167 119 -285.5t286 -118.5t285.5 118.5t118.5 285.5t-118.5 285.5t-285.5 118.5t-286 -118.5t-119 -285.5zM371 718q0 135 51 222q50 88 149 88t156 -109 q13 -25 23 -60l-66 -13q-17 66 -35 82q-33 29 -71 29q-98 0 -124 -95q-12 -46 -12 -108q0 -110 27 -170.5t105 -60.5q99 0 118 111l66 -8q-2 -28 -32 -77q-58 -96 -152 -96q-68 1 -116 45q-87 81 -87 220z" />
<glyph unicode="&#xaa;" horiz-adv-x="928" d="M105 1173.5q0 30.5 7.5 53t23.5 40.5q34 36 90 56t137 36q0 67 -24 88t-72.5 21t-87.5 -40q-17 -17 -23 -30l-41 27q48 91 162 91q143 0 143 -156v-233q0 -13 4.5 -34t8.5 -29h-57q-13 6 -13 71q-60 -77 -136 -77t-107 56q-15 29 -15 59.5zM161 1170.5q0 -31.5 22 -48 t49 -16.5q47 0 81.5 26t49.5 44v135l-95 -25q-75 -25 -97 -64q-10 -20 -10 -51.5z" />
<glyph unicode="&#xab;" horiz-adv-x="755" d="M100 1276l222 222l64 -66l-156 -156l157 -157l-65 -65zM368 1276l222 222l64 -66l-156 -156l157 -157l-65 -65z" />
<glyph unicode="&#xac;" horiz-adv-x="1112" d="M92 704v92l928 -1v-429h-92v337z" />
<glyph unicode="&#xad;" horiz-adv-x="1112" d="M92 694v92h928v-92h-928z" />
<glyph unicode="&#xae;" horiz-adv-x="1142" d="M100 744q0 191 138 326.5t334 135.5t332 -134q138 -136 138 -344q0 -111 -63.5 -217.5t-172 -167.5t-235.5 -61t-235.5 62t-172 168.5t-63.5 231.5zM168 744q0 -163 119 -279t284.5 -116t284 115.5t118.5 280t-118 279.5t-285 115t-285 -116t-118 -279zM410 500v492h212 q65 0 101 -44.5t36 -93t-22.5 -90t-71.5 -51.5l93 -213h-76l-90 202h-111v-202h-71zM481 765h122q86 0 86 89q0 44 -31 59.5t-88 15.5h-89v-164z" />
<glyph unicode="&#xaf;" horiz-adv-x="707" d="M90 1231v92h527v-92h-527z" />
<glyph unicode="&#xb0;" horiz-adv-x="688" d="M92 1242q0 106 74.5 180.5t180.5 74.5t180.5 -74.5t74.5 -180.5t-74.5 -180.5t-180.5 -74.5t-180.5 74.5t-74.5 180.5zM188 1242q0 -65 46.5 -111.5t111.5 -46.5t111.5 46.5t46.5 111.5t-46.5 111.5t-111.5 46.5t-111.5 -46.5t-46.5 -111.5z" />
<glyph unicode="&#x30a;" horiz-adv-x="688" d="M92 1242q0 106 74.5 180.5t180.5 74.5t180.5 -74.5t74.5 -180.5t-74.5 -180.5t-180.5 -74.5t-180.5 74.5t-74.5 180.5zM188 1242q0 -65 46.5 -111.5t111.5 -46.5t111.5 46.5t46.5 111.5t-46.5 111.5t-111.5 46.5t-111.5 -46.5t-46.5 -111.5z" />
<glyph unicode="&#xb1;" horiz-adv-x="707" d="M90 414v92h527v-92h-527zM90 817v92h218v218h92v-218h217v-92h-217v-218h-92v218h-218z" />
<glyph unicode="&#xb2;" horiz-adv-x="489" d="M95 1056q0 37 5 56q13 45 69 98q27 24 52 42l55 40q22 17 30 25q18 19 25.5 36t7.5 38q0 38 -22 60.5t-67 22.5q-25 0 -44.5 -9t-30.5 -23q-22 -29 -23 -60h-44q0 38 21 68.5t54.5 47t69.5 16.5t65.5 -16t47 -44.5t17.5 -62.5t-15.5 -60t-32 -40.5l-25.5 -22.5l-49 -37 q-113 -91 -117 -132h233v-43h-282z" />
<glyph unicode="&#xb3;" horiz-adv-x="1171" d="M102 1126l30 26q25 -25 35 -33q32 -24 79 -24q61 0 89 36q15 19 16 46q0 44 -26.5 69t-69.5 25h-64v43h64q40 0 60.5 23.5t20.5 58.5t-27 54.5t-60.5 19.5t-62.5 -13.5t-43 -31.5l-29 28q22 25 56.5 42.5t74 17.5t69 -15.5t47.5 -41.5t18 -56q0 -48 -30 -83 q-13 -16 -27 -24q37 -23 54 -50t17 -63q0 -62 -40 -95t-107 -33q-86 0 -144 74z" />
<glyph unicode="&#xb4;" horiz-adv-x="683" d="M122 1160l295 295l87 -87l-316 -273z" />
<glyph unicode="&#x1ffd;" horiz-adv-x="683" d="M122 1160l295 295l87 -87l-316 -273z" />
<glyph unicode="&#x341;" horiz-adv-x="683" d="M122 1160l295 295l87 -87l-316 -273z" />
<glyph unicode="&#x301;" horiz-adv-x="683" d="M122 1160l295 295l87 -87l-316 -273z" />
<glyph unicode="&#xb5;" horiz-adv-x="979" d="M129 -411v1466h132v-786q0 -75 53.5 -121.5t115.5 -46.5q148 0 307 173v781h132v-1055h-132v174q-140 -138 -243 -170q-48 -15 -110 -15t-119 26v-426h-136z" />
<glyph unicode="&#xb6;" horiz-adv-x="1115" d="M68 1102q0 66 14 120q29 117 125.5 205t264.5 88h508v-1515h-148v692h-218v-692h-148v692q-107 0 -187 37t-124.5 99.5t-65.5 135t-21 138.5zM216 1105q0 -120 66.5 -190t183.5 -90v557q-116 -20 -183 -88.5t-67 -188.5zM614 816h218v575h-218v-575z" />
<glyph unicode="&#xb7;" horiz-adv-x="653" d="M92 786v150h150v-150h-150z" />
<glyph unicode="&#x387;" horiz-adv-x="653" d="M92 786v150h150v-150h-150z" />
<glyph unicode="&#xb8;" horiz-adv-x="350" d="M22 -227q153 0 153 44q0 87 -79 183h90q8 -14 12 -18q13 -16 20 -31l11 -21q25 -50 25 -113q0 -120 -214 -120h-18v76z" />
<glyph unicode="&#x327;" horiz-adv-x="350" d="M22 -227q153 0 153 44q0 87 -79 183h90q8 -14 12 -18q13 -16 20 -31l11 -21q25 -50 25 -113q0 -120 -214 -120h-18v76z" />
<glyph unicode="&#xb9;" horiz-adv-x="839" d="M120 1481l98 34h32v-411h66v-43h-184v43h73v363l-71 -21z" />
<glyph unicode="&#xba;" horiz-adv-x="972" d="M101 1288.5q0 103.5 46 165t129 61.5t128.5 -62t45.5 -165.5t-46 -167t-128 -63.5t-128.5 64t-46.5 167.5zM171 1286q0 -166 104.5 -166t104.5 166q0 83 -23.5 124.5t-80.5 41.5t-81 -41t-24 -125z" />
<glyph unicode="&#xbb;" horiz-adv-x="755" d="M100 1119l157 157l-156 156l64 66l222 -222l-222 -222zM368 1119l157 157l-156 156l64 66l222 -222l-222 -222z" />
<glyph unicode="&#xbc;" horiz-adv-x="1265" d="M67 1460l163 58h54v-687h110v-71h-306v71h122v605l-119 -34zM148 -41l744 1592h108l-743 -1592h-109zM545 193v60l328 503h89v-501h116v-62h-116v-195h-74v195h-343zM620 255h268v413z" />
<glyph unicode="&#xbd;" horiz-adv-x="1196" d="M67 1463l163 57h54v-686h110v-71h-306v71h122v605l-119 -35zM121 -38l744 1592h108l-743 -1592h-109zM617 -8q0 62 9 94q21 75 115 162q45 42 86 72l91 66q37 27 50 41q31 32 43 60t12 63q0 63 -36.5 101t-111.5 39q-42 0 -74.5 -15.5t-50.5 -39.5q-36 -48 -38 -99h-74 q0 63 35 113.5t91 78t116.5 28t109.5 -26.5t78 -75t29 -103.5t-26 -99.5t-53.5 -68.5t-42.5 -36.5l-81 -63q-188 -151 -196 -220h388v-71h-469z" />
<glyph unicode="&#xbe;" horiz-adv-x="1219" d="M67 884l51 44q40 -42 58 -56q53 -40 132 -40q100 0 148 60q25 32 26 78q0 72 -44 114.5t-116 41.5h-107v71h107q66 0 101 39.5t35 98t-45.5 91t-101.5 32.5t-104 -22.5t-71 -53.5l-48 47q36 42 93.5 71.5t123 29.5t115 -26t79 -69.5t29.5 -94.5q0 -79 -50 -138 q-22 -25 -44 -40q61 -37 89.5 -82.5t28.5 -105.5q0 -103 -67 -158.5t-177 -55.5q-143 0 -241 124zM240 -38l744 1592h108l-743 -1592h-109zM620 193v60l328 503h89v-501h115v-62h-115v-195h-74v195h-343zM696 255h267v413z" />
<glyph unicode="&#xbf;" horiz-adv-x="863" d="M93 369q0 151 125 303l102 120q124 141 125 236v149h132v-149q0 -117 -123 -264l-102 -122q-123 -147 -123 -264t63 -191q61 -72 133 -72q103 0 160.5 32.5t96.5 110.5l90 -57q-50 -93 -141 -147t-206 -54q-150 0 -241 109t-91 260zM442 1347v150h150v-150h-150z" />
<glyph unicode="&#xc0;" horiz-adv-x="1130" d="M25 0l432 1515h216l432 -1515h-154l-130 478h-509l-133 -478h-154zM197 1880l87 87l295 -295l-66 -65zM346 602h440l-221 787z" />
<glyph unicode="&#xc1;" horiz-adv-x="1130" d="M25 0l432 1515h216l432 -1515h-154l-130 478h-509l-133 -478h-154zM346 602h440l-221 787zM551 1672l295 295l87 -87l-316 -273z" />
<glyph unicode="&#xc2;" horiz-adv-x="1130" d="M25 0l432 1515h216l432 -1515h-154l-130 478h-509l-133 -478h-154zM343 1719l222 222l222 -222l-66 -64l-156 156l-157 -157zM346 602h440l-221 787z" />
<glyph unicode="&#xc3;" horiz-adv-x="1130" d="M25 0l432 1515h216l432 -1515h-154l-130 478h-509l-133 -478h-154zM262 1721q61 130 175 130q82 0 140 -56.5t121 -56.5t100 86l69 -40q-62 -130 -175 -130q-80 0 -139.5 56.5t-122 56.5t-99.5 -86zM346 602h440l-221 787z" />
<glyph unicode="&#xc4;" horiz-adv-x="1130" d="M25 0l432 1515h216l432 -1515h-154l-130 478h-509l-133 -478h-154zM330 1654v150h150v-150h-150zM346 602h440l-221 787zM649 1654v150h150v-150h-150z" />
<glyph unicode="&#xc5;" horiz-adv-x="1130" d="M25 0l432 1515h216l432 -1515h-154l-130 478h-509l-133 -478h-154zM311 1752q0 106 74.5 180.5t180 74.5t180.5 -74.5t75 -180.5t-75 -180.5t-180.5 -74.5t-180 74.5t-74.5 180.5zM346 602h440l-221 787zM407 1752q0 -65 46 -111.5t111.5 -46.5t112 46.5t46.5 111.5 t-46.5 111.5t-112 46.5t-111.5 -46.5t-46 -111.5z" />
<glyph unicode="&#xc6;" horiz-adv-x="1600" d="M25 0l432 1515h1037v-124h-673v-533h483v-124h-483v-601h711v-133h-859v478h-361l-133 -478h-154zM346 602h327v787h-108z" />
<glyph unicode="&#x4d4;" horiz-adv-x="1600" d="M25 0l432 1515h1037v-124h-673v-533h483v-124h-483v-601h711v-133h-859v478h-361l-133 -478h-154zM346 602h327v787h-108z" />
<glyph unicode="&#xc7;" horiz-adv-x="1174" d="M80 776q0 226 76 414q86 214 256 296q92 46 188 46t163.5 -24.5t113.5 -63.5q99 -84 143.5 -182t57.5 -150l6 -24v-1l-152 -41q-51 362 -314 362q-390 0 -390 -649q0 -278 82 -454q44 -93 122 -145t171 -52q226 0 313 186q41 88 44 169l146 -23q-4 -11 -18.5 -54 t-24.5 -70t-32.5 -73.5t-44.5 -77.5q-131 -181 -347 -181q-189 0 -305 90q-254 196 -254 702zM499 -233q153 0 153 44q0 87 -79 183h90q8 -14 12 -18q13 -16 20 -31l11 -21q25 -50 25 -113q0 -120 -214 -120h-18v76z" />
<glyph unicode="&#xc8;" horiz-adv-x="1062" d="M135 0v1515h821v-124h-673v-533h483v-124h-483v-601h711v-133h-859zM177 1880l87 87l295 -295l-66 -65z" />
<glyph unicode="&#xc9;" horiz-adv-x="1062" d="M135 0v1515h821v-124h-673v-533h483v-124h-483v-601h711v-133h-859zM532 1672l295 295l87 -87l-316 -273z" />
<glyph unicode="&#xca;" horiz-adv-x="1062" d="M135 0v1515h821v-124h-673v-533h483v-124h-483v-601h711v-133h-859zM324 1719l222 222l222 -222l-66 -64l-156 156l-157 -157z" />
<glyph unicode="&#xcb;" horiz-adv-x="1062" d="M135 0v1515h821v-124h-673v-533h483v-124h-483v-601h711v-133h-859zM311 1654v150h150v-150h-150zM630 1654v150h150v-150h-150z" />
<glyph unicode="&#xcc;" horiz-adv-x="418" d="M-159 1880l87 87l295 -295l-66 -65zM135 0v1515h148v-1515h-148z" />
<glyph unicode="&#xcd;" horiz-adv-x="418" d="M135 0v1515h148v-1515h-148zM195 1672l295 295l87 -87l-316 -273z" />
<glyph unicode="&#xce;" horiz-adv-x="418" d="M-13 1719l222 222l222 -222l-66 -64l-156 156l-157 -157zM135 0v1515h148v-1515h-148z" />
<glyph unicode="&#xcf;" horiz-adv-x="418" d="M-26 1654v150h150v-150h-150zM135 0v1515h148v-1515h-148zM293 1654v150h150v-150h-150z" />
<glyph unicode="&#xd0;" horiz-adv-x="1284" d="M9 676v136h128v703h361q155 0 273 -43q118 -44 190 -114q195 -191 195 -599t-218 -609q-162 -150 -440 -150h-361v676h-128zM285 124h213q256 0 383 168.5t127 452.5q0 434 -220 574q-113 72 -290 72h-213v-579h324v-136h-324v-552z" />
<glyph unicode="&#x189;" horiz-adv-x="1284" d="M9 676v136h128v703h361q155 0 273 -43q118 -44 190 -114q195 -191 195 -599t-218 -609q-162 -150 -440 -150h-361v676h-128zM285 124h213q256 0 383 168.5t127 452.5q0 434 -220 574q-113 72 -290 72h-213v-579h324v-136h-324v-552z" />
<glyph unicode="&#xd1;" horiz-adv-x="1251" d="M128 0v1515h236l611 -1154v1154h148v-1515h-127l-720 1368v-1368h-148zM323 1721q61 130 175 130q82 0 140 -56.5t121 -56.5t100 86l69 -40q-62 -130 -175 -130q-80 0 -139.5 56.5t-122 56.5t-99.5 -86z" />
<glyph unicode="&#xd2;" horiz-adv-x="1263" d="M80 753q0 115 19 224t62 211t106.5 177.5t159.5 121t211.5 45.5t207.5 -46q168 -85 252.5 -289.5t84.5 -444.5q-1 -439 -227 -652q-123 -116 -315 -116q-111 0 -205 44.5t-158.5 119t-110 174t-66.5 208t-21 223.5zM228 739q0 -119 24 -231q22 -113 70 -204 q48 -92 130 -144t180 -52q186 0 282 142q121 180 121 505t-121 507q-43 64 -113 105t-160 41t-161.5 -36t-118 -96.5t-77 -145.5t-43.5 -178.5t-13 -212.5zM273 1880l87 87l295 -295l-66 -65z" />
<glyph unicode="&#xd3;" horiz-adv-x="1263" d="M80 753q0 115 19 224t62 211t106.5 177.5t159.5 121t211.5 45.5t207.5 -46q168 -85 252.5 -289.5t84.5 -444.5q-1 -439 -227 -652q-123 -116 -315 -116q-111 0 -205 44.5t-158.5 119t-110 174t-66.5 208t-21 223.5zM228 739q0 -119 24 -231q22 -113 70 -204 q48 -92 130 -144t180 -52q186 0 282 142q121 180 121 505t-121 507q-43 64 -113 105t-160 41t-161.5 -36t-118 -96.5t-77 -145.5t-43.5 -178.5t-13 -212.5zM627 1672l295 295l87 -87l-316 -273z" />
<glyph unicode="&#xd4;" horiz-adv-x="1263" d="M80 753q0 115 19 224t62 211t106.5 177.5t159.5 121t211.5 45.5t207.5 -46q168 -85 252.5 -289.5t84.5 -444.5q-1 -439 -227 -652q-123 -116 -315 -116q-111 0 -205 44.5t-158.5 119t-110 174t-66.5 208t-21 223.5zM228 739q0 -119 24 -231q22 -113 70 -204 q48 -92 130 -144t180 -52q186 0 282 142q121 180 121 505t-121 507q-43 64 -113 105t-160 41t-161.5 -36t-118 -96.5t-77 -145.5t-43.5 -178.5t-13 -212.5zM419 1719l222 222l222 -222l-66 -64l-156 156l-157 -157z" />
<glyph unicode="&#xd5;" horiz-adv-x="1263" d="M80 753q0 115 19 224t62 211t106.5 177.5t159.5 121t211.5 45.5t207.5 -46q168 -85 252.5 -289.5t84.5 -444.5q-1 -439 -227 -652q-123 -116 -315 -116q-111 0 -205 44.5t-158.5 119t-110 174t-66.5 208t-21 223.5zM228 739q0 -119 24 -231q22 -113 70 -204 q48 -92 130 -144t180 -52q186 0 282 142q121 180 121 505t-121 507q-43 64 -113 105t-160 41t-161.5 -36t-118 -96.5t-77 -145.5t-43.5 -178.5t-13 -212.5zM338 1721q61 130 175 130q82 0 140 -56.5t121 -56.5t100 86l69 -40q-62 -130 -175 -130q-80 0 -139.5 56.5 t-122 56.5t-99.5 -86z" />
<glyph unicode="&#xd6;" horiz-adv-x="1263" d="M80 753q0 115 19 224t62 211t106.5 177.5t159.5 121t211.5 45.5t207.5 -46q168 -85 252.5 -289.5t84.5 -444.5q-1 -439 -227 -652q-123 -116 -315 -116q-111 0 -205 44.5t-158.5 119t-110 174t-66.5 208t-21 223.5zM228 739q0 -119 24 -231q22 -113 70 -204 q48 -92 130 -144t180 -52q186 0 282 142q121 180 121 505t-121 507q-43 64 -113 105t-160 41t-161.5 -36t-118 -96.5t-77 -145.5t-43.5 -178.5t-13 -212.5zM406 1654v150h150v-150h-150zM725 1654v150h150v-150h-150z" />
<glyph unicode="&#xd7;" horiz-adv-x="707" d="M93 544l196 196l-196 197l65 65l196 -197l195 196l65 -65l-195 -196l196 -196l-65 -65l-196 196l-196 -196z" />
<glyph unicode="&#xd8;" horiz-adv-x="1251" d="M70 733q0 135 19 244t62 211t106.5 177.5t159.5 121t214 45.5q174 0 306 -112l74 129l114 -66l-97 -167q75 -111 114 -261q39 -147 39 -281q0 -135 -19 -246q-19 -108 -62 -208t-105.5 -174t-156 -118t-207.5 -44q-175 0 -308 110l-76 -132l-115 66l97 168 q-78 109 -118.5 255.5t-40.5 281.5zM218 732.5q0 -240.5 85 -410.5l568 984q-97 102 -240 102q-257 0 -357 -278q-56 -157 -56 -397.5zM387 204q101 -96 244 -96q89 0 160 39.5t115 102.5q126 182 127 532q0 226 -81 401z" />
<glyph unicode="&#xd9;" horiz-adv-x="1213" d="M135 455v1060h148v-1060q0 -135 66 -229q83 -118 260 -118q87 0 151 28t96 66q79 96 81 253l-6 1060h154v-1060q-1 -163 -89 -293q-121 -178 -387 -178q-319 0 -429 254q-45 104 -45 217zM241 1880l87 87l295 -295l-66 -65z" />
<glyph unicode="&#xda;" horiz-adv-x="1213" d="M135 455v1060h148v-1060q0 -135 66 -229q83 -118 260 -118q87 0 151 28t96 66q79 96 81 253l-6 1060h154v-1060q-1 -163 -89 -293q-121 -178 -387 -178q-319 0 -429 254q-45 104 -45 217zM594 1672l295 295l87 -87l-316 -273z" />
<glyph unicode="&#xdb;" horiz-adv-x="1213" d="M135 455v1060h148v-1060q0 -135 66 -229q83 -118 260 -118q87 0 151 28t96 66q79 96 81 253l-6 1060h154v-1060q-1 -163 -89 -293q-121 -178 -387 -178q-319 0 -429 254q-45 104 -45 217zM386 1719l222 222l222 -222l-66 -64l-156 156l-157 -157z" />
<glyph unicode="&#xdc;" horiz-adv-x="1213" d="M135 455v1060h148v-1060q0 -135 66 -229q83 -118 260 -118q87 0 151 28t96 66q79 96 81 253l-6 1060h154v-1060q-1 -163 -89 -293q-121 -178 -387 -178q-319 0 -429 254q-45 104 -45 217zM374 1654v150h150v-150h-150zM693 1654v150h150v-150h-150z" />
<glyph unicode="&#xdd;" horiz-adv-x="1122" d="M25 1515h154l382 -713l382 713h154l-462 -855v-660h-148v660zM547 1672l295 295l87 -87l-316 -273z" />
<glyph unicode="&#xde;" horiz-adv-x="1113" d="M90 0v1515h148v-335h381q235 0 345 -186q58 -98 58 -197q0 -98 -21 -169q-22 -72 -67.5 -134.5t-126.5 -99.5t-188 -37h-381v-357h-148zM238 481h280q162 0 259.5 71t97.5 217t-98 216.5t-259 70.5h-280v-575z" />
<glyph unicode="&#xdf;" horiz-adv-x="1226" d="M160 0v879q0 307 41.5 422t116.5 160q104 64 259.5 64t249 -85t93.5 -196.5t-54 -185.5t-134 -105q-17 -7 -47.5 -18t-42.5 -16q-48 -19 -60 -31l-16 -20q-16 -20 -16 -62q0 -82 64.5 -123.5t141 -64.5t100.5 -31l66 -25q62 -24 105.5 -59t59.5 -63q39 -68 39 -148 q0 -133 -101 -218t-230 -85t-207 39t-144 145l99 64q52 -81 99 -108.5t143.5 -27.5t152.5 48.5t56 112.5q0 114 -75.5 158.5t-148.5 61.5q-72 18 -114 32q-98 34 -166 100t-68 181t65.5 174t172 88.5t126.5 95.5q9 28 9 50v26q0 83 -63.5 129.5t-142.5 46.5 q-143 -1 -208 -77q-31 -38 -56 -130t-25 -319v-879h-140z" />
<glyph unicode="&#xe0;" horiz-adv-x="928" d="M72 259.5q0 71.5 18 125t56 95.5q79 85 211 131.5t324 84.5q0 158 -57.5 208t-171.5 50t-206 -96q-38 -40 -54 -70l-95 63q112 215 381 215q335 0 335 -367v-549q0 -29 11 -79t20 -69h-133q-30 15 -30 168q-141 -181 -320 -181t-252 132q-37 67 -37 138.5zM110 1414 l87 87l295 -295l-66 -65zM204 254q0 -74 52 -113.5t116 -39.5q110 0 191.5 61.5t117.5 104.5v317q-190 -49 -225 -60q-176 -57 -227 -150q-25 -46 -25 -120z" />
<glyph unicode="&#xe1;" horiz-adv-x="928" d="M72 259.5q0 71.5 18 125t56 95.5q79 85 211 131.5t324 84.5q0 158 -57.5 208t-171.5 50t-206 -96q-38 -40 -54 -70l-95 63q112 215 381 215q335 0 335 -367v-549q0 -29 11 -79t20 -69h-133q-30 15 -30 168q-141 -181 -320 -181t-252 132q-37 67 -37 138.5zM204 254 q0 -74 52 -113.5t116 -39.5q110 0 191.5 61.5t117.5 104.5v317q-190 -49 -225 -60q-176 -57 -227 -150q-25 -46 -25 -120zM464 1206l295 295l87 -87l-316 -273z" />
<glyph unicode="&#xe2;" horiz-adv-x="928" d="M72 259.5q0 71.5 18 125t56 95.5q79 85 211 131.5t324 84.5q0 158 -57.5 208t-171.5 50t-206 -96q-38 -40 -54 -70l-95 63q112 215 381 215q335 0 335 -367v-549q0 -29 11 -79t20 -69h-133q-30 15 -30 168q-141 -181 -320 -181t-252 132q-37 67 -37 138.5zM204 254 q0 -74 52 -113.5t116 -39.5q110 0 191.5 61.5t117.5 104.5v317q-190 -49 -225 -60q-176 -57 -227 -150q-25 -46 -25 -120zM256 1253l222 222l222 -222l-66 -64l-156 156l-157 -157z" />
<glyph unicode="&#xe3;" horiz-adv-x="928" d="M72 259.5q0 71.5 18 125t56 95.5q79 85 211 131.5t324 84.5q0 158 -57.5 208t-171.5 50t-206 -96q-38 -40 -54 -70l-95 63q112 215 381 215q335 0 335 -367v-549q0 -29 11 -79t20 -69h-133q-30 15 -30 168q-141 -181 -320 -181t-252 132q-37 67 -37 138.5zM176 1255 q61 130 175 130q82 0 140 -56.5t121 -56.5t100 86l69 -40q-62 -130 -175 -130q-80 0 -139.5 56.5t-122 56.5t-99.5 -86zM204 254q0 -74 52 -113.5t116 -39.5q110 0 191.5 61.5t117.5 104.5v317q-190 -49 -225 -60q-176 -57 -227 -150q-25 -46 -25 -120z" />
<glyph unicode="&#xe4;" horiz-adv-x="928" d="M72 259.5q0 71.5 18 125t56 95.5q79 85 211 131.5t324 84.5q0 158 -57.5 208t-171.5 50t-206 -96q-38 -40 -54 -70l-95 63q112 215 381 215q335 0 335 -367v-549q0 -29 11 -79t20 -69h-133q-30 15 -30 168q-141 -181 -320 -181t-252 132q-37 67 -37 138.5zM204 254 q0 -74 52 -113.5t116 -39.5q110 0 191.5 61.5t117.5 104.5v317q-190 -49 -225 -60q-176 -57 -227 -150q-25 -46 -25 -120zM244 1188v150h150v-150h-150zM563 1188v150h150v-150h-150z" />
<glyph unicode="&#xe5;" horiz-adv-x="928" d="M72 259.5q0 71.5 18 125t56 95.5q79 85 211 131.5t324 84.5q0 158 -57.5 208t-171.5 50t-206 -96q-38 -40 -54 -70l-95 63q112 215 381 215q335 0 335 -367v-549q0 -29 11 -79t20 -69h-133q-30 15 -30 168q-141 -181 -320 -181t-252 132q-37 67 -37 138.5zM204 254 q0 -74 52 -113.5t116 -39.5q110 0 191.5 61.5t117.5 104.5v317q-190 -49 -225 -60q-176 -57 -227 -150q-25 -46 -25 -120zM222 1413q0 106 74.5 180.5t180.5 74.5t180.5 -74.5t74.5 -180.5t-74.5 -180.5t-180.5 -74.5t-180.5 74.5t-74.5 180.5zM318 1413q0 -65 46.5 -111.5 t111.5 -46.5t111.5 46.5t46.5 111.5t-46.5 111.5t-111.5 46.5t-111.5 -46.5t-46.5 -111.5z" />
<glyph unicode="&#xe6;" horiz-adv-x="1527" d="M72 259.5q0 71.5 18 125t56 95.5q79 85 211 131.5t324 84.5q0 158 -57.5 208t-171.5 50t-206 -96q-38 -40 -54 -70l-95 63q112 215 381 215q221 0 296 -157q104 157 296 157q373 0 373 -553h-634q-1 -265 135 -363q68 -49 136 -49q122 0 190 72.5t86 118.5l90 -63 q-37 -74 -101 -132q-119 -108 -248 -108t-222 64.5t-145 178.5q-163 -243 -355.5 -243t-265.5 132q-37 67 -37 138.5zM204 254q0 -74 52 -113.5t113 -39.5q61 1 105 17q124 47 230 176q-26 69 -26 139.5t1.5 104.5t1.5 46q-190 -49 -225 -60q-176 -57 -227 -150 q-25 -46 -25 -120zM815 625h496q-2 107 -46 207q-24 54 -72.5 88t-114.5 34q-176 0 -233 -162q-28 -79 -30 -167z" />
<glyph unicode="&#x4d5;" horiz-adv-x="1527" d="M72 259.5q0 71.5 18 125t56 95.5q79 85 211 131.5t324 84.5q0 158 -57.5 208t-171.5 50t-206 -96q-38 -40 -54 -70l-95 63q112 215 381 215q221 0 296 -157q104 157 296 157q373 0 373 -553h-634q-1 -265 135 -363q68 -49 136 -49q122 0 190 72.5t86 118.5l90 -63 q-37 -74 -101 -132q-119 -108 -248 -108t-222 64.5t-145 178.5q-163 -243 -355.5 -243t-265.5 132q-37 67 -37 138.5zM204 254q0 -74 52 -113.5t113 -39.5q61 1 105 17q124 47 230 176q-26 69 -26 139.5t1.5 104.5t1.5 46q-190 -49 -225 -60q-176 -57 -227 -150 q-25 -46 -25 -120zM815 625h496q-2 107 -46 207q-24 54 -72.5 88t-114.5 34q-176 0 -233 -162q-28 -79 -30 -167z" />
<glyph unicode="&#xe7;" horiz-adv-x="926" d="M75 520q0 546 425 546q104 0 176 -50q108 -76 150 -203l-106 -48q-2 20 -21.5 59t-41.5 64t-63.5 45.5t-93.5 20.5q-293 0 -293 -425q0 -206 77.5 -317t215.5 -111h3q92 0 150 67t79 118l9 22l104 -50q0 -21 -38.5 -78.5t-76 -96t-99 -66.5t-131.5 -28 q-218 0 -321.5 139.5t-103.5 391.5zM381 -228q153 0 153 44q0 87 -79 183h90q8 -14 12 -18q13 -16 20 -31l11 -21q25 -50 25 -113q0 -120 -214 -120h-18v76z" />
<glyph unicode="&#xe8;" horiz-adv-x="925" d="M75 500q0 99 14 180.5t37 138.5q64 159 200 217q71 30 135 30t109 -12q44 -10 96 -46q174 -120 175 -495h-634q-1 -265 135 -363q67 -48 149 -49q154 0 262 191l91 -63q-39 -72 -102 -130q-120 -110 -237 -110t-199 43t-131 116t-74.5 163t-25.5 189zM107 1414l87 87 l295 -295l-66 -65zM213 625h496q-2 107 -46 207q-24 54 -72.5 88t-114.5 34q-176 0 -233 -162q-28 -79 -30 -167z" />
<glyph unicode="&#xe9;" horiz-adv-x="925" d="M75 500q0 99 14 180.5t37 138.5q64 159 200 217q71 30 135 30t109 -12q44 -10 96 -46q174 -120 175 -495h-634q-1 -265 135 -363q67 -48 149 -49q154 0 262 191l91 -63q-39 -72 -102 -130q-120 -110 -237 -110t-199 43t-131 116t-74.5 163t-25.5 189zM213 625h496 q-2 107 -46 207q-24 54 -72.5 88t-114.5 34q-176 0 -233 -162q-28 -79 -30 -167zM461 1206l295 295l87 -87l-316 -273z" />
<glyph unicode="&#xea;" horiz-adv-x="925" d="M75 500q0 99 14 180.5t37 138.5q64 159 200 217q71 30 135 30t109 -12q44 -10 96 -46q174 -120 175 -495h-634q-1 -265 135 -363q67 -48 149 -49q154 0 262 191l91 -63q-39 -72 -102 -130q-120 -110 -237 -110t-199 43t-131 116t-74.5 163t-25.5 189zM213 625h496 q-2 107 -46 207q-24 54 -72.5 88t-114.5 34q-176 0 -233 -162q-28 -79 -30 -167zM253 1253l222 222l222 -222l-66 -64l-156 156l-157 -157z" />
<glyph unicode="&#xeb;" horiz-adv-x="925" d="M75 500q0 99 14 180.5t37 138.5q64 159 200 217q71 30 135 30t109 -12q44 -10 96 -46q174 -120 175 -495h-634q-1 -265 135 -363q67 -48 149 -49q154 0 262 191l91 -63q-39 -72 -102 -130q-120 -110 -237 -110t-199 43t-131 116t-74.5 163t-25.5 189zM213 625h496 q-2 107 -46 207q-24 54 -72.5 88t-114.5 34q-176 0 -233 -162q-28 -79 -30 -167zM240 1188v150h150v-150h-150zM559 1188v150h150v-150h-150z" />
<glyph unicode="&#xec;" horiz-adv-x="462" d="M-137 1414l87 87l295 -295l-66 -65zM165 -2v1057h132v-1057h-132z" />
<glyph unicode="&#xed;" horiz-adv-x="462" d="M165 -2v1057h132v-1057h-132zM217 1206l295 295l87 -87l-316 -273z" />
<glyph unicode="&#xee;" horiz-adv-x="462" d="M9 1253l222 222l222 -222l-66 -64l-156 156l-157 -157zM165 -2v1057h132v-1057h-132z" />
<glyph unicode="&#xef;" horiz-adv-x="462" d="M-4 1188v150h150v-150h-150zM165 -2v1057h132v-1057h-132zM315 1188v150h150v-150h-150z" />
<glyph unicode="&#xf0;" horiz-adv-x="1022" d="M100 533q0 243 108.5 388t303.5 145q147 0 232 -70q-79 206 -91 228l-17 34l-203 -116l-46 80l199 114q-57 77 -111.5 127t-56.5 52h139q50 -31 125 -123l162 94l46 -80l-155 -90q187 -301 187 -789q0 -329 -188 -469q-93 -69 -222 -69q-194 0 -303 150.5t-109 393.5z M232 528q0 -316 164 -401q50 -26 116 -26q183 0 245 191q33 100 33 235q0 427 -279 427t-279 -426z" />
<glyph unicode="&#x1d9e;" horiz-adv-x="1022" d="M100 533q0 243 108.5 388t303.5 145q147 0 232 -70q-79 206 -91 228l-17 34l-203 -116l-46 80l199 114q-57 77 -111.5 127t-56.5 52h139q50 -31 125 -123l162 94l46 -80l-155 -90q187 -301 187 -789q0 -329 -188 -469q-93 -69 -222 -69q-194 0 -303 150.5t-109 393.5z M232 528q0 -316 164 -401q50 -26 116 -26q183 0 245 191q33 100 33 235q0 427 -279 427t-279 -426z" />
<glyph unicode="&#xf1;" horiz-adv-x="970" d="M120 0v1055h132v-173q88 87 167 135.5t186 48.5t181 -70t74 -210v-786h-132v786q0 75 -53.5 121.5t-115.5 46.5q-148 0 -307 -173v-781h-132zM188 1255q61 130 175 130q82 0 140 -56.5t121 -56.5t100 86l69 -40q-62 -130 -175 -130q-80 0 -139.5 56.5t-122 56.5 t-99.5 -86z" />
<glyph unicode="&#xf2;" horiz-adv-x="972" d="M75 534.5q0 241.5 108.5 386.5t303.5 145t302.5 -146t107.5 -390t-108.5 -393t-303.5 -149t-302.5 152.5t-107.5 394zM119 1414l87 87l295 -295l-66 -65zM207 528q1 -317 165 -402q50 -26 115 -26t115 26q162 84 163 401q0 427 -279 427t-279 -426z" />
<glyph unicode="&#xf3;" horiz-adv-x="972" d="M75 534.5q0 241.5 108.5 386.5t303.5 145t302.5 -146t107.5 -390t-108.5 -393t-303.5 -149t-302.5 152.5t-107.5 394zM207 528q1 -317 165 -402q50 -26 115 -26t115 26q162 84 163 401q0 427 -279 427t-279 -426zM473 1206l295 295l87 -87l-316 -273z" />
<glyph unicode="&#xf4;" horiz-adv-x="972" d="M75 534.5q0 241.5 108.5 386.5t303.5 145t302.5 -146t107.5 -390t-108.5 -393t-303.5 -149t-302.5 152.5t-107.5 394zM207 528q1 -317 165 -402q50 -26 115 -26t115 26q162 84 163 401q0 427 -279 427t-279 -426zM265 1253l222 222l222 -222l-66 -64l-156 156l-157 -157z " />
<glyph unicode="&#xf5;" horiz-adv-x="972" d="M75 534.5q0 241.5 108.5 386.5t303.5 145t302.5 -146t107.5 -390t-108.5 -393t-303.5 -149t-302.5 152.5t-107.5 394zM184 1255q61 130 175 130q82 0 140 -56.5t121 -56.5t100 86l69 -40q-62 -130 -175 -130q-80 0 -139.5 56.5t-122 56.5t-99.5 -86zM207 528 q1 -317 165 -402q50 -26 115 -26t115 26q162 84 163 401q0 427 -279 427t-279 -426z" />
<glyph unicode="&#xf6;" horiz-adv-x="972" d="M75 534.5q0 241.5 108.5 386.5t303.5 145t302.5 -146t107.5 -390t-108.5 -393t-303.5 -149t-302.5 152.5t-107.5 394zM207 528q1 -317 165 -402q50 -26 115 -26t115 26q162 84 163 401q0 427 -279 427t-279 -426zM252 1188v150h150v-150h-150zM571 1188v150h150v-150 h-150z" />
<glyph unicode="&#xf7;" horiz-adv-x="707" d="M90 694v92h527v-92h-527zM279 394v150h150v-150h-150zM279 936v150h150v-150h-150z" />
<glyph unicode="&#xf8;" horiz-adv-x="1022" d="M100 536q0 240 108.5 385t303.5 145q107 0 193 -48l48 84l114 -66l-60 -106q115 -148 115 -396t-108.5 -397t-301.5 -149q-119 0 -213 63l-50 -87l-115 66l68 118q-102 148 -102 388zM232 528q0 -152 41 -257l375 649q-58 34 -136 34q-280 0 -280 -426zM357 152 q65 -52 143 -52t128 26q90 47 126 157t36 268t-50 264z" />
<glyph unicode="&#xf9;" horiz-adv-x="979" d="M129 269v786h132v-786q0 -75 53.5 -121.5t115.5 -46.5q148 0 307 173v781h132v-1055h-132v174q-140 -138 -243 -170q-49 -15 -102 -15q-115 0 -189 70t-74 210zM131 1414l87 87l295 -295l-66 -65z" />
<glyph unicode="&#xfa;" horiz-adv-x="979" d="M129 269v786h132v-786q0 -75 53.5 -121.5t115.5 -46.5q148 0 307 173v781h132v-1055h-132v174q-140 -138 -243 -170q-49 -15 -102 -15q-115 0 -189 70t-74 210zM485 1206l295 295l87 -87l-316 -273z" />
<glyph unicode="&#xfb;" horiz-adv-x="979" d="M129 269v786h132v-786q0 -75 53.5 -121.5t115.5 -46.5q148 0 307 173v781h132v-1055h-132v174q-140 -138 -243 -170q-49 -15 -102 -15q-115 0 -189 70t-74 210zM277 1253l222 222l222 -222l-66 -64l-156 156l-157 -157z" />
<glyph unicode="&#xfc;" horiz-adv-x="979" d="M129 269v786h132v-786q0 -75 53.5 -121.5t115.5 -46.5q148 0 307 173v781h132v-1055h-132v174q-140 -138 -243 -170q-49 -15 -102 -15q-115 0 -189 70t-74 210zM264 1188v150h150v-150h-150zM583 1188v150h150v-150h-150z" />
<glyph unicode="&#xfd;" horiz-adv-x="905" d="M25 1055h142l299 -859l280 859h134l-368 -1119q-56 -171 -116 -234.5t-121.5 -79t-124.5 -15.5t-123 8l10 121q36 -17 96 -17t99 15.5t64 39.5q87 86 108 223zM438 1206l295 295l87 -87l-316 -273z" />
<glyph unicode="&#xfe;" horiz-adv-x="1081" d="M160 1515h132v-624q24 45 79 90q103 85 217 85q210 0 320 -230q63 -132 63 -289q0 -275 -135 -439q-98 -119 -261 -119q-92 0 -178 55.5t-105 95.5v-551h-132v1926zM292 254q46 -66 112 -109.5t126 -43.5h9q54 0 91 11q93 26 151 128t58 329.5t-115 329.5q-62 55 -157 55 q-125 0 -219 -106q-24 -28 -56 -69v-525z" />
<glyph unicode="&#xff;" horiz-adv-x="905" d="M25 1055h142l299 -859l280 859h134l-368 -1119q-56 -171 -116 -234.5t-121.5 -79t-124.5 -15.5t-123 8l10 121q36 -17 96 -17t99 15.5t64 39.5q87 86 108 223zM218 1193v150h150v-150h-150zM537 1193v150h150v-150h-150z" />
<glyph unicode="&#x131;" horiz-adv-x="462" d="M165 -2v1057h132v-1057h-132z" />
<glyph unicode="&#x152;" horiz-adv-x="1718" d="M80 753.5q0 113.5 19 220t62 206t106.5 173.5t159.5 118t214 44h971v-124h-673v-533h483v-124h-483v-601h711v-133h-1009q-111 0 -205 43t-158.5 116t-110 170t-66.5 204t-21 220.5zM228 752q0 -514 291 -596q82 -23 209 -23h63v1258q-155 -1 -213 -10 q-177 -29 -263.5 -176.5t-86.5 -452.5z" />
<glyph unicode="&#x153;" horiz-adv-x="1615" d="M75 534.5q0 241.5 108.5 386.5t303.5 145q117 0 205.5 -56t138.5 -158q78 165 247 204q43 10 90 10t92 -12q44 -10 96 -46q174 -120 175 -495h-634q-1 -265 135 -363q67 -48 149 -49q154 0 262 191l91 -63q-39 -72 -102 -130q-120 -110 -251 -110q-236 0 -350 216 q-52 -103 -139.5 -160t-195.5 -57q-206 0 -313.5 152.5t-107.5 394zM207 528q1 -317 165 -402q50 -26 115 -26t115 26q162 84 163 401q0 427 -279 427t-279 -426zM903 625h496q-2 107 -46 207q-24 54 -72.5 88t-114.5 34q-176 0 -233 -162q-28 -79 -30 -167z" />
<glyph unicode="&#x178;" horiz-adv-x="1122" d="M25 1515h154l382 -713l382 713h154l-462 -855v-660h-148v660zM326 1654v150h150v-150h-150zM645 1654v150h150v-150h-150z" />
<glyph unicode="&#x237;" horiz-adv-x="362" d="M-63 -225q97 0 140 34t43 162v1084h132v-1055q0 -168 -37.5 -229t-65.5 -75q-65 -33 -165 -33h-39z" />
<glyph unicode="&#x2d9;" horiz-adv-x="475" d="M-75 122v150h150v-150h-150z" />
<glyph unicode="&#x2da;" horiz-adv-x="475" d="M-254 384q0 106 74.5 180.5t180 74.5t180.5 -74.5t75 -180.5t-75 -180.5t-180.5 -74.5t-180 74.5t-74.5 180.5zM-158 384q0 -65 46 -111.5t111.5 -46.5t112 46.5t46.5 111.5t-46.5 111.5t-112 46.5t-111.5 -46.5t-46 -111.5z" />
<glyph unicode="&#x2dc;" horiz-adv-x="475" d="M-302 189q61 130 175 130q82 0 140 -56.5t121 -56.5t100 86l69 -40q-62 -130 -175 -130q-80 0 -139.5 56.5t-122 56.5t-99.5 -86z" />
<glyph unicode="&#x2000;" horiz-adv-x="1003" />
<glyph unicode="&#x2001;" horiz-adv-x="2007" />
<glyph unicode="&#x2002;" horiz-adv-x="1003" />
<glyph unicode="&#x2003;" horiz-adv-x="2007" />
<glyph unicode="&#x2004;" horiz-adv-x="669" />
<glyph unicode="&#x2005;" horiz-adv-x="501" />
<glyph unicode="&#x2006;" />
<glyph unicode="&#x2007;" />
<glyph unicode="&#x2008;" horiz-adv-x="250" />
<glyph unicode="&#x2009;" horiz-adv-x="401" />
<glyph unicode="&#x200a;" horiz-adv-x="111" />
<glyph unicode="&#x2010;" horiz-adv-x="708" d="M92 694v92h524v-92h-524z" />
<glyph unicode="&#x2015;" horiz-adv-x="708" d="M92 694v92h524v-92h-524z" />
<glyph unicode="&#x2014;" horiz-adv-x="708" d="M92 694v92h524v-92h-524z" />
<glyph unicode="&#x2013;" horiz-adv-x="708" d="M92 694v92h524v-92h-524z" />
<glyph unicode="&#x2012;" horiz-adv-x="708" d="M92 694v92h524v-92h-524z" />
<glyph unicode="&#x2011;" horiz-adv-x="708" d="M92 694v92h524v-92h-524z" />
<glyph unicode="&#x201e;" horiz-adv-x="577" d="M70 -1l87 250h-65v150h150v-150q-27 -57 -76 -152t-52 -98h-44zM335 -1l87 250h-65v150h150v-150q-27 -57 -76 -152t-52 -98h-44z" />
<glyph unicode="&#x2022;" horiz-adv-x="688" d="M185 675q1 65 47 115t112 49.5t112 -50.5t46 -114t-46 -114.5t-112 -50.5t-112.5 50t-46.5 115z" />
<glyph unicode="&#x2026;" horiz-adv-x="1002" d="M92 0v150h150v-150h-150zM426 0v150h150v-150h-150zM760 0v150h150v-150h-150z" />
<glyph unicode="&#x202f;" horiz-adv-x="401" />
<glyph unicode="&#x2044;" horiz-adv-x="1003" d="M70 -38l744 1592h108l-743 -1592h-109z" />
<glyph unicode="&#x205f;" horiz-adv-x="501" />
<glyph unicode="&#x20ac;" horiz-adv-x="1283" d="M25 572v102h116q-3 46 -3 74t2 80h-115v102h124q33 248 153 416q62 86 158 136t195 50t167 -24q112 -40 198 -150q38 -46 72 -119t46 -125l5 -24v-1l-150 -43l-7 38q-32 162 -112 243t-198 81q-333 0 -382 -478h382v-102h-389q-1 -26 -1 -67t3 -87h387v-102h-380 q55 -464 380 -464q267 0 343 355l145 -23q-37 -168 -143 -296q-133 -160 -345 -160q-278 0 -420 248q-79 140 -106 340h-125z" />
<glyph unicode="&#x2122;" horiz-adv-x="906" d="M87 1326v63h304v-63h-117v-391h-70v391h-117zM435 933v455h101l90 -327l92 327h101v-455h-70v347l-97 -347h-50l-97 348v-348h-70z" />
<glyph unicode="&#xe000;" horiz-adv-x="1055" d="M0 1055h1055v-1055h-1055v1055z" />
<glyph unicode="&#xfb01;" horiz-adv-x="808" d="M13 943v112h173v223q0 164 141 220q66 26 148 26l232 -9v-150h-150v38q-28 2 -50 2q-70 0 -115 -11q-74 -18 -74 -116v-223h384v-1057h-132v945h-252v-943h-132v943h-173z" />
<glyph unicode="&#xfb02;" horiz-adv-x="853" d="M13 943v112h173v223q0 162 162 220q74 26 152 26t190 -7l32 -2v-1517h-132v945h-272v-943h-132v943h-173zM318 1055h272v349h-89q-183 -3 -183 -126v-223z" />
<glyph unicode="&#xfb03;" horiz-adv-x="1179" d="M13 943v112h173v223q0 246 308 246q73 0 118 -20.5t49 -24.5q87 45 185 45q36 0 133.5 -4t98.5 -5v-150h-150v39h-89q-150 0 -150 -126v-223h384v-1057h-132v945h-252v-943h-132v943h-239v-943h-132v943h-173zM318 1055h239v223q0 55 21 111q-64 16 -114 16 q-146 0 -146 -127v-223z" />
<glyph unicode="&#xfb04;" horiz-adv-x="1191" d="M13 943v112h173v223q0 162 160 220q74 26 124 26q68 0 92 -4l23 -5q50 -10 76 -36q77 46 197 46q26 0 202 -10v-1517h-132v945h-239v-943h-132v943h-239v-943h-132v943h-173zM318 1055h239v223q0 55 21 111q-64 16 -114 16q-146 0 -146 -127v-223zM689 1055h239v349h-97 q-75 0 -108.5 -34.5t-33.5 -91.5v-223z" />
<glyph horiz-adv-x="577" d="M70 1046l87 250h-65v150h150v-150q-27 -57 -76 -152t-52 -98h-44zM335 1046l87 250h-65v150h150v-150q-27 -57 -76 -152t-52 -98h-44z" />
</font>
</defs>
</svg>
