<?xml version="1.0" standalone="no"?>
<!DOCTYPE svg PUBLIC "-//W3C//DTD SVG 1.1//EN" "http://www.w3.org/Graphics/SVG/1.1/DTD/svg11.dtd" >
<svg xmlns="http://www.w3.org/2000/svg">
<metadata>
This is a custom SVG webfont generated by Font Squirrel.
Copyright   : Digitized data  2007 Ascender Corporation All rights reserved
Designer    : Steve Matteson
Foundry     : Ascender Corporation
Foundry URL : httpwwwascendercorpcom
</metadata>
<defs>
<font id="webfontyl8oJiwW" horiz-adv-x="1228" >
<font-face units-per-em="2048" ascent="1638" descent="-410" />
<missing-glyph horiz-adv-x="500" />
<glyph unicode=" " />
<glyph unicode="!" d="M410 0l39 201h194l-39 -201h-194zM512 397l162 951h196l-208 -951h-150z" />
<glyph unicode="&#x22;" d="M377 846l84 639h223l-166 -639h-141zM825 846l84 639h224l-166 -639h-142z" />
<glyph unicode="#" d="M29 408l20 108h225l129 318h-241l20 106h264l168 410h111l-168 -410h363l167 410h109l-166 -410h211l-20 -106h-234l-129 -318h260l-20 -108h-285l-166 -408h-110l165 408h-362l-164 -408h-110l163 408h-200zM385 516h363l129 318h-361z" />
<glyph unicode="$" d="M35 379l178 37q0 -61 12 -99q14 -45 47 -79q31 -33 84.5 -55.5t126.5 -24.5l97 489q-2 0 -8.5 1t-8.5 3l-12 4q-61 14 -125 37q-66 23 -107 53q-51 37 -75 82q-29 51 -29 119q0 25 2 37t6 41q14 82 60 141q43 57 108 99q59 37 148 59q74 18 176 23l24 131h129l-24 -131 q100 -2 168 -25q68 -20 112 -64q41 -39 64 -98q18 -47 24 -135l-180 -33q0 49 -12 88q-12 40 -37 68q-27 31 -65 45q-45 18 -101 20l-84 -426q61 -14 146 -41q76 -23 127 -57q55 -37 88 -88q35 -53 34 -135q0 -33 -10 -84q-16 -80 -53 -139q-43 -70 -107 -113 q-74 -49 -159 -76q-88 -27 -213 -33l-31 -161h-129l31 161q-213 6 -317.5 98.5t-104.5 260.5zM389 975q0 -40 19 -68q23 -33 45 -47q39 -23 69 -33q40 -12 86 -24l80 411q-71 -3 -123 -18q-55 -16 -88 -43q-29 -25 -53 -61q-18 -29 -29 -74q-4 -16 -4 -23q0 -4 -1 -11t-1 -9 zM610 156q68 4 123 18q59 16 101 43q39 27 73 70q29 39 39 96q4 20 4 27q0 4 1 11t1 11q0 49 -20 78q-23 33 -55 53q-34 22 -80 37q-37 12 -95 27z" />
<glyph unicode="%" d="M-29 0l1194 1354h148l-1196 -1354h-146zM82 911q0 47 12 113q18 96 53 164q33 61 82 104q43 37 102.5 53.5t119.5 16.5q33 0 90 -12q41 -8 73 -35q27 -23 48 -68q18 -43 18 -106q0 -51 -12 -117q-20 -100 -54 -160q-37 -66 -82 -104q-43 -37 -102 -58q-55 -18 -115 -18 q-51 0 -94 12q-45 12 -74 39q-29 25 -47 70q-18 43 -18 106zM229 922q0 -68 29 -96.5t82 -28.5q33 0 59 12q29 12 50 39q29 37 43 70q14 35 28 106q14 76 15 111q0 27 -9 55q-4 18 -20 37q-10 12 -33 20q-18 6 -45 6q-35 0 -63 -12q-31 -14 -52 -37q-20 -25 -41 -69 q-16 -41 -30 -111q-13 -61 -13 -102zM602 215q0 51 12 115q16 88 56 162q34 65 80 104q41 35 104 53q59 16 117 17q43 0 90 -11q37 -8 74 -37q31 -25 49 -67q16 -39 16 -107q0 -61 -10 -114q-16 -90 -55 -162q-33 -61 -82 -105q-45 -39 -100.5 -57t-116.5 -18q-49 0 -93 12 q-45 12 -73 39q-31 29 -49 70q-19 43 -19 106zM750 225q0 -68 28.5 -96.5t81.5 -28.5q33 0 60 13q33 14 51 39q25 33 41 69q18 43 30 109q12 63 13 106q0 70 -29 94q-31 27 -78 27q-41 0 -63 -10q-33 -14 -51 -39q-25 -33 -41 -70q-18 -43 -31 -108q-12 -62 -12 -105z" />
<glyph unicode="&#x26;" d="M0 266q0 49 8 92q14 74 49 140q31 57 84 114q49 52 111 93q68 43 129 71q-10 31 -21 86q-8 43 -8 101q0 53 8 96q10 55 46 117q29 51 83 94q57 45 121 63q80 25 160 25q68 0 113 -15q53 -16 86 -40q31 -25 55 -68q20 -39 20 -90q0 -27 -6 -55q-16 -72 -57 -125 q-37 -47 -111 -97q-68 -45 -145 -77l-166 -68q33 -90 88 -203q43 -88 115 -186q70 102 110 184q53 104 95 221l135 -43q-51 -133 -119 -254q-61 -106 -133 -209q35 -55 76 -79q43 -25 84 -25q18 0 51 4q27 4 47 12l-27 -135q-14 -8 -55 -16q-28 -6 -61 -6q-35 0 -76 10 q-35 8 -68 29q-31 18 -53 41q-25 25 -43 49q-45 -33 -72 -49q-45 -29 -88 -45.5t-100 -30.5q-51 -12 -113 -12q-96 0 -159.5 20t-108.5 61q-43 39 -64 91q-20 48 -20 114zM170 301q0 -43 12 -76q14 -37 41 -61q27 -23 68 -39q37 -14 94 -14q37 0 78 10q35 8 69 24 q39 18 62 33q16 10 49 39q-76 115 -127 213q-66 129 -102 227q-92 -45 -156 -120q-59 -72 -82 -175q-6 -30 -6 -61zM502 981q0 -45 6 -82q2 -14 18 -68q39 14 74 30t57 24q47 18 109 53q47 27 80 65.5t41 81.5q2 12 2 31q0 57 -39 88q-43 33 -107 33q-37 0 -84 -14 q-35 -10 -69 -35q-31 -20 -53 -58q-18 -31 -29 -73q-6 -37 -6 -39v-37z" />
<glyph unicode="'" d="M602 846l82 639h225l-166 -639h-141z" />
<glyph unicode="(" d="M309 233q0 143 31 299q27 139 74 269q47 131 112 239q70 119 156 222q98 119 203 223h188q-117 -113 -209 -232q-96 -123 -155 -227q-72 -127 -111 -238q-47 -133 -72 -258q-29 -143 -28 -290q0 -88 12 -170q12 -78 37 -164q20 -72 65 -164q45 -94 90 -168h-190 q-45 70 -88 162t-64 160q-29 90 -38 165q-13 83 -13 172z" />
<glyph unicode=")" d="M147 -426q111 109 211 231q84 104 158 228q68 113 111 237q45 131 71 260q29 143 29 285q0 89 -12 172q-10 70 -39 166q-20 72 -66 164q-37 78 -92 168h193q55 -86 90 -160q43 -92 63 -160q25 -80 37 -161q14 -96 14 -173q0 -78 -8 -143q-10 -80 -24 -156 q-28 -144 -74 -270t-111 -239q-61 -109 -155 -226q-84 -104 -203 -223h-193z" />
<glyph unicode="*" d="M369 1159l69 133l248 -106l45 297h135l-69 -295l284 102l19 -131l-295 -74l135 -249l-131 -72l-100 258l-207 -256l-105 72l238 247z" />
<glyph unicode="+" d="M117 608v146h424v428h145v-428h424v-146h-424v-428h-145v428h-424z" />
<glyph unicode="," d="M84 -362l297 661h264l-438 -661h-123z" />
<glyph unicode="-" d="M319 465l31 160h559l-30 -160h-560z" />
<glyph unicode="." d="M391 0l58 299h235l-57 -299h-236z" />
<glyph unicode="/" d="M4 -20l1114 1505h178l-1110 -1505h-182z" />
<glyph unicode="0" d="M121 412q0 37 8 123q8 80 21 141q40 203 104 338q63 133 143 213q78 78 178 110q102 33 203 33q84 0 152 -20q70 -20 121 -70q52 -49 79 -129q29 -82 29 -203q0 -37 -8 -127q-4 -53 -23 -145q-37 -193 -102 -328t-145 -215q-78 -78 -181 -117q-98 -37 -198 -36 q-80 0 -154 22q-70 20 -119 74q-55 59 -79 133q-29 86 -29 203zM301 416q0 -76 16 -135q16 -55 45 -88q31 -34 74 -50q45 -16 96 -16q70 0 133.5 28.5t114.5 92t94 168.5q39 92 72 260q16 86 25 149q8 59 8 121q0 78 -16.5 133.5t-44.5 83.5q-33 33 -72 47q-41 14 -96 15 q-78 0 -140 -27q-63 -27 -114 -90q-53 -66 -93 -168q-43 -111 -71 -264q-31 -154 -31 -260z" />
<glyph unicode="1" d="M51 0l29 145h438l201 1020q-27 -39 -82 -75.5t-123 -61.5q-74 -27 -141 -41q-70 -14 -142 -14l29 147q84 0 150 17q88 23 143 47q68 31 123 73.5t92 92.5h166l-234 -1205h353l-29 -145h-973z" />
<glyph unicode="2" d="M39 0l22 117q43 68 109 137q51 55 131 123q57 51 143 110l144 103l133 98q66 49 115 96q49 45 84 101q33 51 45 106q6 31 6 56q0 41 -17 77q-16 35 -45 56q-37 25 -71 32q-47 10 -95 11q-104 0 -192 -60q-86 -57 -123 -180l-178 18q25 74 67 144q41 63 111 117 q72 53 152 79q90 29 192 29q186 0 286.5 -73.5t100.5 -213.5v-39q0 -14 -8 -43q-18 -80 -49 -133q-33 -55 -90 -118q-47 -53 -119 -111q-55 -45 -135 -100l-140 -99l-133 -96q-66 -49 -114 -96q-51 -47 -86 -103h723l-29 -145h-940z" />
<glyph unicode="3" d="M92 326v18v18l191 17q-2 -53 10 -103q12 -43 43 -77q31 -33 82 -52q53 -18 123 -18q63 0 125 16q55 14 100 48q47 33 74 77q29 49 41 107q4 25 4 41q0 55 -31 92q-35 41 -74 59q-46 22 -98 31q-47 8 -100 8h-103l31 158h98q51 0 108.5 12.5t108.5 38.5q49 27 88 72 t52 108q4 20 4 27v27q0 80 -56 127q-53 45 -170 45q-119 0 -204 -62q-84 -61 -119 -172l-178 15q27 92 82 161q51 68 125 115q71 46 153 68q86 23 172 22q106 0 176 -20.5t119 -59.5t69.5 -88t20.5 -110q0 -25 -2 -37q-4 -25 -6 -39q-8 -53 -37 -107q-27 -51 -74 -94 q-51 -49 -106 -76q-63 -33 -139 -47v-4q78 -10 120 -31q59 -29 89 -59q33 -35 51 -80q16 -39 16 -92q0 -4 -1 -14.5t-1 -14.5q0 -16 -2 -26q-18 -92 -63 -164q-46 -74 -117 -123q-74 -51 -164 -78q-92 -27 -211 -26q-121 0 -203 28q-78 27 -129 78q-45 45 -67 109 q-21 59 -21 131z" />
<glyph unicode="4" d="M59 319l27 140l809 891h199l-172 -889h188l-29 -142h-186l-64 -319h-180l64 319h-656zM242 461h499l136 692z" />
<glyph unicode="5" d="M84 315l186 21q2 -37 17 -78q10 -33 41 -65q25 -27 75 -48q47 -18 119 -18q68 0 131 23q61 22 111 61q43 35 80 98q35 59 49 131q6 31 6 58q0 47 -16 90q-16 41 -49 71.5t-80 45.5q-59 18 -113 18q-49 0 -84 -8q-49 -12 -74 -23q-45 -20 -65 -33q-33 -18 -58 -38h-176 l189 729h801l-27 -146h-635l-113 -426q51 35 133 64q74 27 177 26q90 0 161 -24q70 -25 119 -68q47 -41 74 -106q27 -68 27 -135q0 -35 -11 -91q-18 -100 -67 -186t-123 -147q-76 -63 -176 -97q-104 -35 -224 -34q-104 0 -188 26q-74 23 -125 72q-49 45 -70 106 q-22 63 -22 131z" />
<glyph unicode="6" d="M147 414q0 115 23 227q33 174 96 313q63 141 144 230q84 92 186 139q104 47 219 47q76 0 133.5 -14.5t104.5 -49t73 -87.5q28 -55 37 -136l-180 -30q-8 90 -63 131q-53 41 -134 41q-72 0 -141 -35q-63 -31 -121 -103q-55 -68 -98 -165q-39 -90 -66 -228q70 94 164 140 q100 47 213 47q82 0 150 -23q59 -20 108 -65q45 -41 70 -105q25 -61 25 -137q0 -46 -13 -105q-18 -102 -63 -186q-46 -86 -117 -147q-78 -68 -162 -99q-94 -35 -203 -34q-96 0 -170 30q-78 33 -120 84q-47 55 -72 137q-23 74 -23 183zM328 391q0 -59 14 -104t43 -84 q27 -35 72 -58q41 -20 98 -20q63 0 121 22q51 20 98 63.5t76 98.5q31 58 43 129q6 20 6 41q0 8 1 20.5t1 20.5q0 53 -14 90q-18 47 -43 72q-27 27 -74 43q-45 16 -102 16q-47 0 -102.5 -16t-100.5 -49q-51 -37 -80 -80q-37 -55 -49 -115q-8 -41 -8 -90z" />
<glyph unicode="7" d="M287 1204l28 146h912l-29 -140q-121 -137 -235 -284t-209 -301q-100 -162 -164 -310q-68 -158 -98 -315h-189q31 156 102.5 315.5t165.5 311.5q86 137 213 299q111 141 240 278h-737z" />
<glyph unicode="8" d="M92 291q0 47 8 86q14 68 50 127q31 51 81 100q43 41 105 68q59 27 110 35v4q-45 12 -84 37q-35 23 -59 57q-27 35 -37 72q-12 41 -12 84q0 33 6 63q12 68 53 131q39 57 107 111q61 47 153.5 75.5t196.5 28.5q98 0 176 -22q76 -23 121 -62q51 -43 70 -90q23 -55 22 -111 q0 -29 -6 -63q-8 -45 -37 -102q-23 -47 -65 -93q-35 -39 -93 -71q-53 -31 -114 -43l-2 -4q57 -10 94 -29q43 -20 71.5 -53t45.5 -76q16 -45 16 -98q0 -25 -2 -37q-2 -6 -3 -18.5t-1 -18.5q-14 -82 -59 -158q-41 -70 -111 -127q-61 -51 -166 -84q-95 -31 -221 -30 q-109 0 -187 24q-84 27 -129 64q-49 40 -73 98q-25 59 -25 125zM283 315q0 -47 14 -82q16 -39 43 -63.5t78 -40.5q43 -14 114 -14q88 0 144 20q59 23 100 58q39 33 66 90q25 53 37 112q6 28 6 56q0 41 -13 73q-12 37 -41 62q-31 28 -79 43q-45 14 -121 14q-84 0 -139 -20 q-57 -20 -103 -60q-43 -37 -65.5 -80t-32.5 -92q-2 -14 -6 -39q-2 -12 -2 -37zM436 958q0 -31 10 -65q10 -33 35 -57q27 -27 68 -41q45 -16 108 -17q78 0 142 25q53 20 90 57t51 76q20 55 25 76q6 28 6 55q0 37 -13 68q-14 33 -38 53q-31 25 -70 35q-51 14 -105 14 q-71 0 -122 -18q-57 -20 -91 -48q-37 -31 -59 -71q-20 -39 -31 -88q-6 -29 -6 -54z" />
<glyph unicode="9" d="M119 274l178 27q8 -92 59 -133q53 -43 144 -43q70 0 139 35q68 34 123 98q53 61 98 166q47 109 70 225q-33 -49 -74 -84q-45 -39 -94 -61q-59 -29 -109 -39q-63 -14 -110 -14q-80 0 -145.5 24.5t-108.5 71.5q-45 49 -66 108q-23 68 -22 142q0 53 12 114q23 111 68 189 q43 76 120 143q66 57 166 94q90 33 203 33q186 0 283 -102q94 -100 94 -314q0 -104 -29 -252q-35 -178 -94 -311q-57 -129 -147 -227q-82 -92 -187 -137q-106 -47 -221 -47q-78 0 -143 16q-61 14 -107 51q-45 35 -69 92q-25 55 -31 135zM387 825q0 -43 14 -92q12 -41 41 -74 q29 -31 70 -49q39 -16 100 -16q55 0 105 16q53 18 102 52q47 33 86 83q37 49 49 117q2 8 3 16.5t2.5 18.5t1.5 16q4 33 4 48q0 59 -15 104q-12 43 -43 82q-27 37 -69 57q-41 20 -101 21q-63 0 -121 -23q-59 -23 -102 -65q-47 -47 -74 -99q-31 -57 -45 -127q-8 -39 -8 -86z " />
<glyph unicode=":" d="M391 0l58 299h235l-57 -299h-236zM543 782l57 299h236l-58 -299h-235z" />
<glyph unicode=";" d="M176 -362l297 661h266l-440 -661h-123zM543 782l57 299h236l-58 -299h-235z" />
<glyph unicode="&#x37e;" d="M176 -362l297 661h266l-440 -661h-123zM543 782l57 299h236l-58 -299h-235z" />
<glyph unicode="&#x3c;" d="M117 571v205l993 418v-154l-856 -366l856 -367v-153z" />
<glyph unicode="=" d="M117 344v148h993v-148h-993zM117 856v148h993v-148h-993z" />
<glyph unicode="&#x3e;" d="M117 154v153l858 367l-858 366v154l993 -418v-205z" />
<glyph unicode="?" d="M176 961q28 89 80 165q47 70 127 129q72 53 166 84t207 31q95 0 172 -18q70 -16 131 -58q59 -39 84 -90q29 -57 28 -127q0 -25 -2 -37q-4 -25 -6 -39q-16 -84 -63 -153q-41 -63 -103 -111q-78 -61 -120 -86q-37 -20 -123 -80q-53 -37 -101 -90q-41 -47 -57 -125h-176 q23 94 65 152q51 68 103 108q78 61 121 86q53 31 118 78q51 37 97 92q39 49 55 121q4 18 4 49q0 86 -65 132q-70 47 -191 47q-61 0 -127 -21q-61 -18 -106 -53q-47 -35 -82 -86q-39 -55 -56 -113zM342 0l41 201h195l-39 -201h-197z" />
<glyph unicode="@" d="M10 250q0 41 8 127q8 76 21 137q40 209 117 387q76 176 182 307q104 131 235 203q131 74 281 74q98 0 180 -39q76 -37 125 -105q45 -61 72 -157q25 -89 24 -197q0 -111 -24 -231q-27 -139 -72 -264q-39 -111 -100 -205q-55 -84 -121 -135q-61 -47 -139 -48q-33 0 -47 5 q-22 6 -37 18q-14 12 -25 35q-8 18 -8 51v23q0 4 4 24l1 3q1 3 1 5l4 13q0 2 1 5t1 5t1 5l1 3h-6q-18 -35 -51 -74q-27 -31 -66 -63q-33 -27 -75 -43q-37 -14 -80 -15q-47 0 -78 19q-37 20 -51 47q-20 33 -29 74q-8 39 -8 92q0 20 4 73.5t10 79.5q12 68 41 150q27 80 62 143 q39 72 79.5 127.5t92.5 100.5q47 41 102 67q53 25 111 25q37 0 69 -15q27 -12 45 -36q16 -23 27 -56q8 -27 8 -67h4l64 151h114l-196 -508l-16.5 -38.5t-16.5 -43.5l-27 -77q-2 -10 -10 -32t-12 -34q-10 -31 -12 -51q-4 -16 -4 -23v-18q0 -29 10 -39q8 -8 24 -8q43 0 82 39 t76 112q35 70 70 174q39 115 57 222q20 104 20 207q0 90 -18 163.5t-55 128.5q-33 51 -94 84q-55 31 -132 31q-82 0 -155 -31q-76 -31 -139 -86q-68 -59 -125 -133q-58 -77 -105 -172q-51 -104 -84 -205q-35 -104 -57 -227q-16 -86 -21 -127q-6 -61 -6 -115q0 -98 23 -182 q20 -78 61 -137q39 -55 103 -88q61 -31 141 -31q51 0 113 14q59 14 102 33q45 20 94 49q18 12 90 64l56 -88q-70 -49 -107 -72q-49 -29 -115 -59q-59 -27 -127 -43q-59 -14 -139 -15q-100 0 -180 37q-82 37 -133 105q-55 70 -82 168q-29 102 -29 223zM385 340q0 -61 18 -96 q18 -33 60 -33q39 0 78 26.5t80 77.5q35 43 75 121q33 63 68 160q2 8 7 18.5t9 24.5q4 8 9.5 26.5t7.5 26.5q6 18 14 53q2 6 5 19.5t5 19.5q10 55 10 84q0 61 -26 99q-25 33 -70 32q-35 0 -73 -22q-33 -18 -70 -59q-20 -23 -62 -89q-27 -45 -55 -106q-23 -53 -43 -115 q-18 -58 -31 -116q-16 -80 -16 -152z" />
<glyph unicode="A" d="M-104 0l772 1350h217l237 -1350h-192l-66 383h-563l-211 -383h-194zM383 530h463l-66 424l-12 76q-8 53 -10 76q-4 35 -8 61l-5 37l-20 -39q-6 -12 -13 -27.5t-18 -33.5l-39 -74l-41 -76z" />
<glyph unicode="B" d="M57 0l262 1350h412q98 0 187 -17q84 -16 137 -45q55 -31 85.5 -80t30.5 -116q0 -25 -8 -70q-14 -68 -37 -107q-29 -51 -67 -90q-41 -41 -96 -71q-45 -25 -127 -43q145 -18 218.5 -88t73.5 -177q0 -23 -2 -32q-4 -20 -6 -33q-23 -109 -76 -176q-55 -71 -135 -117t-178 -68 q-94 -20 -203 -20h-471zM279 154h266q84 0 137 10q57 10 115 41q52 28 86 74q33 45 49 118q2 10 2 27q0 4 1 11t1 11q0 49 -23 84q-23 37 -61 58q-45 25 -100 33q-66 10 -129 10h-252zM399 780h226q84 0 141 15q53 12 102 45q39 25 66 67q23 37 33 90q4 16 4 25q0 4 1 11 t1 11q0 80 -68 117q-63 35 -203 35h-223z" />
<glyph unicode="C" d="M117 446q0 121 22 236q29 158 90 293q61 137 140 217q84 86 194 133q109 45 248 45q102 0 170 -26.5t117 -75.5q47 -47 73 -107q25 -57 39 -127l-180 -63q-8 55 -22 90q-20 49 -47 78q-29 33 -76 55q-41 20 -105 20q-84 0 -157 -34q-70 -33 -125 -101q-47 -57 -92 -168 q-39 -94 -64 -229q-16 -86 -20 -123q-6 -55 -7 -106q0 -154 63.5 -236t203.5 -82q63 0 118 25q66 29 103 61q51 43 86 90q39 49 69 107l148 -66q-47 -76 -96 -137q-53 -66 -123 -119t-152 -84q-88 -33 -184 -32q-115 0 -195 32q-84 35 -135 94q-57 68 -80 146 q-24 85 -24 194z" />
<glyph unicode="D" d="M57 0l262 1350h312q135 0 233 -27q100 -27 170 -84q66 -53 105 -143q37 -86 37 -205q0 -86 -23 -203q-35 -174 -96.5 -297t-159.5 -215q-96 -90 -211 -131q-125 -45 -260 -45h-369zM279 156h161q211 0 340 133q131 133 183 399q12 66 14 94q4 57 4 82q0 176 -94 252 q-96 78 -287 78h-121z" />
<glyph unicode="E" d="M57 0l262 1350h918l-29 -156h-729l-82 -424h670l-31 -154h-667l-90 -460h768l-29 -156h-961z" />
<glyph unicode="F" d="M88 0l262 1350h891l-29 -156h-700l-96 -496h676l-31 -157h-676l-104 -541h-193z" />
<glyph unicode="G" d="M117 451q0 119 22 231q33 162 90 295q55 131 138 215q84 88 190 133q104 45 246 45q94 0 170 -27q68 -23 117 -69q51 -47 73 -105q25 -59 37 -131l-182 -55q-18 113 -74 170q-59 61 -170 61q-84 0 -158 -34q-70 -33 -123 -102.5t-89.5 -166t-61.5 -229.5 q-16 -88 -20 -121q-6 -55 -7 -106q0 -158 66 -240q66 -80 194 -80q53 0 93 8q45 10 77.5 20.5t63.5 24.5q35 14 43 21l63 336h-292l30 160h480l-111 -572l-92 -51q-52 -28 -117 -49q-68 -23 -133 -37q-76 -16 -150 -16q-106 0 -186 34q-78 35 -129 95q-47 55 -74 149 q-24 87 -24 193z" />
<glyph unicode="H" d="M57 0l262 1350h191l-111 -568h523l110 568h191l-262 -1350h-191l121 623h-522l-121 -623h-191z" />
<glyph unicode="I" d="M96 0l31 156h315l203 1038h-315l28 156h824l-31 -156h-315l-201 -1038h315l-30 -156h-824z" />
<glyph unicode="J" d="M139 342v8l193 31q-1 -11 -1 -22q0 -49 11 -89q12 -49 35 -75q25 -31 57 -45q31 -14 74 -15q102 0 170 72q66 70 94 209l152 778h-312l29 156h502l-180 -930q-18 -98 -62 -182q-41 -78 -102.5 -137.5t-143.5 -90.5q-80 -31 -178 -30q-166 0 -254 88q-84 84 -84 274z" />
<glyph unicode="K" d="M57 0l262 1350h191l-131 -674l702 674h226l-615 -574l430 -776h-225l-362 639l-195 -170l-92 -469h-191z" />
<glyph unicode="L" d="M131 0l262 1350h193l-234 -1194h672l-29 -156h-864z" />
<glyph unicode="M" d="M25 0l262 1350h235l90 -490q8 -27 11 -61q2 -27 6 -76q0 -12 3 -44t5 -50l43 90q8 14 16.5 33.5t20.5 42.5q31 55 35 63l278 492h225l-262 -1350h-162l170 868l21 105q10 53 20 96q6 27 12.5 52.5t10.5 47.5l-55 -108l-49 -94l-48 -88l-247 -439h-138l-82 439 q-4 20 -6 34q-2 25 -6 45q-2 12 -3 23.5t-3 24.5l-6 49q-2 25 -6 54.5l-8 59.5l-9.5 -45.5t-9.5 -54.5q-4 -20 -7 -45t-9 -53l-21 -103l-168 -868h-159z" />
<glyph unicode="N" d="M57 0l262 1350h222l307 -1139q4 57 8 86q4 39 10 88q4 27 17 100l168 865h172l-262 -1350h-230l-301 1130q-4 -57 -8 -87.5t-10 -81.5q-8 -57 -15 -84l-170 -877h-170z" />
<glyph unicode="O" d="M102 430q0 119 27 252q34 172 92.5 301t140.5 215q84 86 187 129q104 43 227 43q197 0 301 -110q102 -109 103 -332q0 -113 -27 -246q-35 -178 -94 -305q-61 -131 -144 -219q-84 -90 -188 -133q-109 -45 -223 -45q-201 0 -301 116q-101 115 -101 334zM303 446 q0 -156 59.5 -233.5t172.5 -77.5q164 0 264 139q102 141 153 408q12 72 19 123q8 78 8 108q0 150 -59.5 225.5t-174.5 75.5q-154 0 -258 -131q-106 -133 -157 -401q-12 -66 -19 -127q-8 -78 -8 -109z" />
<glyph unicode="P" d="M57 0l262 1350h459q106 0 191 -23q78 -20 133 -63q57 -43 80 -99q25 -59 24 -131q0 -49 -8 -90q-15 -83 -61 -160q-47 -80 -117 -139q-61 -53 -170 -94q-98 -37 -221 -37h-281l-100 -514h-191zM377 666h254q86 0 147.5 20.5t110.5 58.5q51 41 76 89q31 57 41 108 q6 31 6 59q0 96 -72 146q-71 49 -215 49h-246z" />
<glyph unicode="Q" d="M102 430q0 119 27 252q34 172 92.5 301t140.5 215q84 86 187 129q104 43 227 43q197 0 301 -110q102 -109 103 -332q0 -113 -27 -246q-29 -156 -76 -266q-47 -113 -114 -203q-61 -82 -148 -141q-78 -53 -176 -76q18 -123 74 -182q55 -57 157 -58q14 0 60 4q39 4 57 9 l-26 -134q-51 -12 -87 -16q-47 -6 -96 -6q-86 0 -143 25q-53 23 -98 73q-39 45 -62 117q-25 76 -33 156q-168 18 -256 133q-84 110 -84 313zM303 446q0 -156 59.5 -233.5t172.5 -77.5q164 0 264 139q102 141 153 408q12 72 19 123q8 78 8 108q0 150 -59.5 225.5t-174.5 75.5 q-154 0 -258 -131q-106 -133 -157 -401q-12 -66 -19 -127q-8 -78 -8 -109z" />
<glyph unicode="R" d="M57 0l262 1350h482q211 0 311 -76q102 -78 102 -213q0 -43 -8 -84q-12 -66 -43 -125q-29 -57 -84 -112.5t-125 -90.5q-72 -37 -166 -51l283 -598h-219l-254 575h-238l-112 -575h-191zM389 725h281q82 0 141 20q61 23 102 54q39 31 66 80t35 94q4 20 4 28v25 q0 170 -266 170h-273z" />
<glyph unicode="S" d="M41 338l190 37q0 -51 17 -101q14 -45 51 -77q33 -29 94 -50q57 -18 142 -18q63 0 135 14q59 12 110 41q43 25 80 74q33 45 45 109q4 16 4 22v23q0 51 -28 90q-25 33 -74 59.5t-105 40.5q-57 16 -116 31l-86 24q-37 10 -84 29q-33 12 -74 39q-37 23 -59 49q-25 29 -41 70 q-14 37 -15 88q0 25 2 37l7 41q18 96 67 164q51 70 121 112q66 41 162 64q84 20 190 20q121 0 195 -20q76 -20 125 -61.5t71 -102.5q25 -68 27 -139l-195 -33q0 47 -16 90q-16 45 -43 67q-27 25 -78 41q-43 14 -114 15q-76 0 -138 -17q-51 -12 -96 -45q-40 -28 -61 -67 q-18 -35 -29 -84q-4 -16 -4 -23v-18q0 -49 22 -78q25 -31 64 -51q31 -16 92 -35l113 -31q47 -12 141 -41q72 -23 127 -55q55 -35 90 -90q35 -57 35 -137q0 -43 -8 -84q-16 -88 -62 -158q-47 -72 -119 -123q-78 -55 -178 -82q-109 -29 -235 -28q-236 0 -348 92 q-109 88 -113 266z" />
<glyph unicode="T" d="M203 1194l30 156h1076l-29 -156h-444l-232 -1194h-190l231 1194h-442z" />
<glyph unicode="U" d="M111 301q0 76 18 170l170 879h190l-163 -852q-2 -6 -8.5 -41t-8.5 -51q-4 -29 -4 -78q0 -100 51 -148q47 -45 168 -45q88 0 144 21q61 23 102 63q39 39 70 117q27 70 49 176l164 838h188l-166 -861q-27 -137 -76 -233t-118 -158q-72 -63 -166 -90q-98 -29 -219 -28 q-98 0 -168 18q-78 20 -121 55q-47 39 -71.5 100.5t-24.5 147.5z" />
<glyph unicode="V" d="M168 1350h201l143 -904q2 -14 7 -44.5t7 -47.5q4 -31 9 -92l8 -94q10 25 22.5 48.5l22.5 43.5l43 90l27.5 52.5l23.5 43.5l492 904h200l-766 -1350h-198z" />
<glyph unicode="W" d="M106 0l52 1350h188l-53 -836q-2 -20 -5 -63t-5 -64q-2 -29 -6.5 -56.5t-6.5 -54.5q-4 -39 -12 -108q14 37 30.5 70.5t28.5 64.5l10.5 26.5t14.5 32.5l27 62l9 21.5t8 16.5t9 19l23 51l186 400h174l33 -400v-24t2 -27q4 -37 4 -57l4 -59q0 -10 1 -31t1 -29q2 -23 3 -69 t1 -68q4 12 11 35l24 84l33 112l35 115l266 836h188l-471 -1350h-208l-29 387q0 29 -2 45q-4 33 -4 55l-4 62q0 10 -1 30.5t-1 30.5q0 33 -2.5 70t-4.5 76q-12 -31 -28.5 -70l-32.5 -78l-29 -61l-26 -60q-18 -43 -25 -55q-4 -8 -20 -45l-183 -387h-207z" />
<glyph unicode="X" d="M-70 0l615 705l-312 645h205l234 -514l432 514h205l-559 -645l337 -705h-204l-262 573l-486 -573h-205z" />
<glyph unicode="Y" d="M193 1350h204l256 -613l492 613h205l-633 -766l-115 -584h-186l112 584z" />
<glyph unicode="Z" d="M-33 0l29 143l1022 1051h-746l31 156h963l-29 -140l-1022 -1054h864l-28 -156h-1084z" />
<glyph unicode="[" d="M221 -426l373 1911h547l-29 -139h-367l-317 -1633h369l-29 -139h-547z" />
<glyph unicode="\" d="M299 1485h176l531 -1505h-183z" />
<glyph unicode="]" d="M82 -426l27 139h366l318 1633h-367l27 139h546l-370 -1911h-547z" />
<glyph unicode="^" d="M115 442l553 908h202l205 -908h-153l-174 803l-482 -803h-151z" />
<glyph unicode="_" d="M-154 -219l21 94h1237l-19 -94h-1239z" />
<glyph unicode="`" d="M575 1432l7 28h196l180 -239l-4 -21h-125z" />
<glyph unicode="a" d="M74 213q0 45 8 88q23 109 74 176q53 70 123 109q66 37 157.5 53t167.5 16l238 4l12 60q2 10 4 27.5t2 19.5q2 14 2 43q0 84 -45 121q-43 35 -137 35q-49 0 -92 -7q-31 -4 -76 -28q-31 -16 -57 -53q-23 -31 -41 -84l-187 18q18 55 62 117q37 53 94 92q59 41 137 61 q76 20 189 21q168 0 254 -67.5t86 -198.5q0 -14 -5 -48q0 -2 -2 -21t-4 -30l-90 -465q-10 -47 -10 -75q0 -41 18.5 -63.5t61.5 -22.5q20 0 31 2q4 2 14 4t14 2l-20 -113q-33 -8 -70 -12q-45 -4 -74 -4q-84 0 -122 39q-37 37 -37 112q0 6 1 16.5t1 16.5q0 8 4 33h-6 q-35 -49 -80 -94q-37 -37 -92 -72q-47 -29 -111 -45q-66 -16 -133 -16q-131 0 -199 63q-65 61 -65 170zM264 252q0 -61 37 -98t109 -37q80 0 151.5 32.5t116.5 77.5q51 51 80 107q33 61 41 110l18 91l-190 -5q-35 0 -113 -8q-51 -6 -106 -33q-51 -25 -86 -69 q-37 -45 -52 -121q-6 -29 -6 -47z" />
<glyph unicode="b" d="M74 0q0 4 3 14.5t5 16.5q2 8 5 21.5t7 29.5q2 10 15 65q6 29 14 76l246 1262h180l-82 -424l-12 -57q-2 -14 -6.5 -26.5t-6.5 -25.5q-6 -27 -10 -49h4q72 111 162 154q98 47 211 47q154 0 229.5 -84t75.5 -258q0 -102 -22 -215q-55 -285 -184.5 -426t-317.5 -141 q-115 0 -193 43q-80 45 -106 141h-2q-4 -16 -12.5 -53t-12.5 -52l-10 -39q-4 -18 -6 -20h-174zM342 350q0 -63 16 -112q14 -43 45 -74q25 -25 70 -39q40 -12 92 -12q59 0 115 22q47 20 94 76q45 53 76 131q31 74 53 199q8 39 17 104q6 49 6 90q0 119 -47 176q-45 53 -146 54 q-61 0 -123 -23q-58 -22 -104 -74q-51 -57 -84 -135t-60 -209q-12 -72 -14 -94q0 -6 -3 -36t-3 -44z" />
<glyph unicode="c" d="M113 369q0 92 16 174q31 160 96 270q65 108 148 172q78 61 178 90q92 27 190 27q96 0 170 -25q70 -23 119 -69q51 -49 72 -103q23 -61 22 -127l-194 -12q4 90 -51 141q-57 53 -172 54q-88 0 -150 -27q-65 -28 -111 -80q-43 -49 -75 -131q-29 -74 -52 -176 q-18 -96 -18 -174q0 -61 12 -109q12 -45 43 -80q28 -31 74 -49q41 -16 111 -16q106 0 190 53q80 51 119 162l188 -12q-22 -68 -67 -129t-113 -109q-70 -49 -151 -76q-90 -29 -185 -28q-109 0 -188 28q-78 29 -127 80q-51 53 -72 123q-22 74 -22 158z" />
<glyph unicode="d" d="M113 311q0 109 22 221q111 565 504 566q119 0 192.5 -43t104.5 -142h2q0 2 1 5.5t2 9.5t1 12q4 20 8 45q2 8 3 17.5t2 15.5t3 16q3 22 7 31l82 420h180l-246 -1262l-8 -39.5t-6 -36.5q-8 -45 -11 -65q-2 -16 -8 -51q-4 -29 -4 -31h-172v23q0 8 2 18t4 25q4 37 8 53 q2 8 5.5 27.5t5.5 27.5h-6q-70 -106 -160 -153.5t-211 -47.5q-160 0 -234 84q-73 82 -73 254zM301 338q0 -119 47 -172t146 -53q68 0 127 24.5t104 75.5q49 55 82 137q35 86 59 205l15 92q6 43 6 80q0 61 -17 111q-15 46 -43 73q-29 29 -69 41q-43 12 -96 13q-61 0 -117 -23 q-51 -20 -94 -74q-41 -49 -72 -133q-39 -102 -55 -196q-6 -35 -17 -111q-6 -49 -6 -90z" />
<glyph unicode="e" d="M117 371q0 83 18 178q31 160 90 262q61 106 140 170q80 65 172 92q96 29 188 29q106 0 178 -27q74 -27 119 -76q47 -49 68 -118q23 -74 22 -158q0 -96 -20 -197l-5 -22h-772q-8 -39 -10 -64q-4 -41 -4 -57q0 -57 16 -111q18 -55 43 -84q35 -37 76 -55q43 -18 105 -18 q53 0 102 12q45 12 92 35q37 18 72 53q33 33 49 66l150 -45q-20 -37 -66 -91q-39 -45 -100 -82q-55 -33 -142 -59q-80 -25 -184 -24q-96 0 -170 24q-72 25 -125 74q-45 43 -76 123q-26 72 -26 170zM344 641h584q4 29 4 37v35q0 74 -19 123q-16 45 -49 77q-31 31 -71 43 q-43 12 -91 13q-51 0 -100 -15q-55 -16 -102 -51q-51 -39 -92 -100q-41 -64 -64 -162z" />
<glyph unicode="f" d="M215 940l29 141h262l4 27q23 104 57 172q37 72 95 117q55 43 141 65.5t198 22.5q8 0 31 -1t37 -1q27 0 80 -4l38.5 -5.5t35.5 -3.5l34 -5l21 -3l-29 -143q-6 0 -12 1t-17.5 2t-21.5 1q-49 4 -76 6q-53 4 -73 4q-14 0 -33 1t-23 1q-59 0 -116 -10q-51 -8 -89 -37 q-37 -28 -61 -74q-25 -47 -41 -122l-2 -11h492l-27 -141h-492l-182 -940h-180l182 940h-262z" />
<glyph unicode="g" d="M80 -158l188 27q4 -78 51 -117q51 -41 142 -41q55 0 104 19q55 20 90 53q35 31 68 98q31 59 45 146q2 14 6 29.5t6 29.5l13 64q2 16 6 34.5l8 36.5h-2q-33 -47 -64 -78q-43 -43 -84 -67q-47 -29 -106 -47q-51 -16 -129 -17q-158 0 -229.5 78t-71.5 238q0 47 6 102 q6 53 18 119q25 127 66 233q39 98 102 172q61 72 146 109q82 37 192.5 37t186 -53.5t100.5 -149.5h2q6 25 12 55q4 18 15 60q2 10 7 26.5t7 20.5q2 6 3 11t2 8l1 3h172l-3 -9q-3 -9 -5 -21l-10 -52q-2 -6 -7.5 -28.5t-7.5 -36.5l-16 -76l-162 -825q-43 -229 -172 -342 q-131 -115 -348 -115q-92 0 -155.5 18.5t-106.5 55.5t-64 84q-18 45 -22 108zM307 354q0 -58 12 -98q12 -39 39 -66q25 -25 64 -34q41 -10 86 -11q55 0 108 21q57 23 105 70q45 45 88 126q39 76 61 189q16 86 17 145q0 76 -17 123q-18 53 -46.5 84t-69.5 47q-37 14 -82 15 q-66 0 -121 -23q-53 -23 -96 -72q-41 -47 -72 -127q-29 -76 -51 -192q-12 -59 -19 -107q-6 -49 -6 -90z" />
<glyph unicode="h" d="M80 0l289 1485h180l-76 -391q-8 -41 -22 -101q-12 -51 -25 -96h2q66 94 160 150q92 55 221 55q139 0 213 -62q76 -63 76 -196q0 -47 -15 -123l-139 -721h-180l133 694q12 58 12 99q0 47 -12 81q-12 33 -39 54q-25 18 -55.5 26.5t-73.5 8.5q-57 0 -115 -23 q-55 -20 -102 -66q-46 -43 -80 -104q-33 -59 -49 -143l-123 -627h-180z" />
<glyph unicode="i" d="M39 0l27 141h421l156 799h-319l26 141h500l-182 -940h381l-29 -141h-981zM690 1292l37 193h201l-37 -193h-201z" />
<glyph unicode="j" d="M-61 -383l26 141q22 -6 49 -12q10 -2 32 -5t32 -5q25 -4 74 -8q53 -4 79 -4q57 0 106.5 14t92.5 45q41 31 74 78q31 45 43 114l186 965h-405l26 141h586l-215 -1110q-23 -111 -70 -184q-45 -72 -120 -123q-68 -47 -150 -67q-86 -23 -168 -23q-29 0 -82 4q-27 2 -76 10 q-37 6 -67 13q-28 6 -53 16zM782 1292l37 193h201l-39 -193h-199z" />
<glyph unicode="k" d="M131 0l289 1485h178l-178 -928l575 524h211l-528 -465l342 -616h-211l-268 500l-152 -99l-78 -401h-180z" />
<glyph unicode="l" d="M29 0l28 141h422l234 1200h-289l27 144h469l-261 -1344h379l-26 -141h-983z" />
<glyph unicode="m" d="M0 0l166 852q8 45 12 70q10 55 12 71q6 33 11 58q0 6 1 13t2 11t1 6h147q0 -10 -2 -24q-2 -10 -4 -22.5l-4 -24.5q-4 -37 -8 -55.5t-8 -47.5h2q16 33 45 74q23 35 55 63q29 27 70 43q35 14 84 15q90 0 122.5 -47t32.5 -150h2q31 51 56 84q28 37 61 62q41 29 72 39 q40 12 86 12q88 0 127 -45q41 -47 41 -148q0 -37 -6 -84q-10 -72 -17 -104l-139 -721h-168l131 686q12 59 18 96q4 29 5 74q0 61 -20.5 84t-61.5 23q-68 0 -121 -84q-55 -86 -86 -252l-123 -627h-168l133 686q8 33 16 96q6 43 7 74q0 61 -20.5 84t-61.5 23q-35 0 -66 -25 q-27 -23 -57 -72q-31 -51 -51 -112q-25 -76 -39 -148l-117 -606h-170z" />
<glyph unicode="n" d="M80 0l166 852q8 45 12 70q8 55 12 71q6 33 11 58q0 6 1 13t2 11t1 6h170q0 -2 -1 -5t-2 -9t-1 -12q-2 -23 -7 -51q-2 -14 -10 -58q-4 -20 -8 -49h2q66 92 162 150q92 55 225 55q137 0 209 -60q74 -61 74 -194q0 -18 -4 -60q-2 -25 -11 -67l-139 -721h-180l133 694 q12 58 12 99q0 47 -12 81q-12 33 -39 54q-25 18 -55.5 26.5t-73.5 8.5q-57 0 -115 -23q-55 -20 -102 -66q-46 -43 -80 -104q-33 -59 -49 -143l-123 -627h-180z" />
<glyph unicode="o" d="M113 367q0 92 16 176q55 276 209 417.5t387 141.5q197 0 295 -92q96 -90 96 -279q0 -29 -4 -90q-4 -51 -14 -98q-29 -147 -82 -248q-57 -109 -131 -176q-78 -72 -174 -105q-100 -35 -211 -34q-90 0 -162 24q-78 27 -123 72q-49 49 -75.5 121t-26.5 170zM301 373 q0 -76 18 -125q20 -53 48 -80q31 -31 71 -43t86 -12q57 0 123 20q59 18 109 68q51 49 90 133q35 72 61 209q14 78 17 96q4 29 4 82q0 70 -17 119q-16 47 -47 75q-33 31 -71 41q-43 12 -93 13q-68 0 -122 -21q-61 -23 -109 -69q-53 -53 -88 -131q-37 -84 -62 -205 q-12 -68 -14 -92q-4 -58 -4 -78z" />
<glyph unicode="p" d="M-2 -426l250 1284q4 20 14 78q8 55 10 65l4.5 26.5l4.5 25.5q0 6 1 12t2 10t1 6h174v-3q0 -3 -1 -7t-1 -10q0 -12 -4 -45q0 -6 -3.5 -24.5t-5.5 -30.5q-2 -27 -10 -58h4q35 55 74 90q45 41 86 63.5t96 35.5q51 12 115 12q88 0 141 -23q57 -25 94 -67q37 -41 56 -107 q16 -55 16 -139q0 -51 -6 -106q-6 -51 -18 -115q-23 -117 -66 -227.5t-100 -180.5q-61 -74 -143.5 -116.5t-192.5 -42.5q-49 0 -105 10q-43 8 -86 33q-35 20 -65 57q-27 31 -39 84h-6q0 -6 -2 -16.5t-6 -38.5q-2 -14 -9 -54l-12 -57l-82 -424h-180zM342 350q0 -61 16 -110 q15 -46 43 -74q29 -29 70 -41q43 -12 94 -12q72 0 129 28q53 27 94 84q40 55 68 135q27 78 49 187q23 119 23 196q0 102 -45 164q-43 57 -150 58q-59 0 -115 -19q-53 -16 -102 -67q-49 -49 -88 -134q-41 -90 -66 -221q-20 -100 -20 -174z" />
<glyph unicode="q" d="M113 311q0 109 22 221q55 281 180 424q123 141 322 142q74 0 115 -11q49 -12 84 -34q33 -20 59 -58q20 -29 39 -82h2q4 16 12 53.5t13 53.5q6 25 12 43t8 20h174q0 -2 -2 -11t-4 -17q-12 -41 -14 -56l-8.5 -38.5t-8.5 -42.5q-10 -49 -22 -117l-240 -1227h-180l86 440 q2 8 5 27.5t5 28.5l12 55q4 20 13 57h-2q-31 -47 -74 -90q-37 -39 -84 -65q-43 -27 -98 -39q-61 -14 -119 -15q-160 0 -234 84q-73 82 -73 254zM301 342q0 -113 47 -172q45 -57 146 -57q53 0 114 20q55 18 105 68q47 47 88 135t65 219q12 68 15 92q4 57 4 78q0 72 -14.5 115 t-45.5 73q-27 27 -71 39q-43 12 -92 13q-68 0 -121 -25q-49 -23 -95 -78q-39 -47 -71 -133q-29 -74 -51 -190q-8 -37 -17 -107q-6 -49 -6 -90z" />
<glyph unicode="r" d="M188 0l138 700q10 51 18 154q6 76 6 135q0 10 -1 27.5t-1 26t-1 21.5t-1 17h172q4 -33 4 -57q0 -10 1 -33.5t1 -36.5q0 -10 -1 -31.5t-1 -31.5q0 -23 -4 -60h4q39 59 82 113q41 49 90 84q57 39 111 55q61 18 143 19q74 0 109 -4q61 -8 94 -13l-33 -167q-31 6 -96 14 q-49 6 -113 6q-82 0 -157 -35q-72 -33 -131 -92q-51 -51 -97 -137q-35 -68 -55 -166l-100 -508h-181z" />
<glyph unicode="s" d="M111 248l163 31q4 -55 23 -86q20 -33 55 -52q29 -14 82 -22q31 -4 105 -4q61 0 108 8q55 10 90 29q43 23 68 53q29 35 37 80q2 12 2 30q0 37 -22.5 64t-63.5 45q-23 10 -92 31q-25 6 -53.5 15t-61.5 17q-74 20 -109 33q-66 23 -96 43q-45 29 -67 66q-27 43 -27 98 q0 29 6 59q16 76 53 132q43 61 99 98q63 41 141 61q86 23 180 23q86 0 146 -15q63 -14 114 -47q47 -31 76 -80q27 -47 27 -118l-166 -21q0 49 -17 74q-18 29 -47 43q-33 16 -71 22q-40 6 -86 7q-246 0 -277 -152q-2 -10 -2 -29q0 -33 21 -59q18 -25 53 -41q27 -12 84 -27 l48 -13l54 -15q109 -31 117 -33q51 -16 106 -47q43 -25 78 -74q33 -45 33 -108q0 -27 -6 -58q-14 -72 -58 -137q-40 -61 -104 -104q-66 -45 -152 -66q-90 -23 -190 -22q-82 0 -168 14q-66 10 -123 45q-53 31 -80 82q-28 53 -30 127z" />
<glyph unicode="t" d="M268 940l27 141h170l113 283h120l-55 -283h432l-26 -141h-433l-127 -651q-4 -16 -4 -25q0 -4 -1 -11t-1 -9q0 -55 39 -84q35 -27 119 -27q27 0 84 4q53 4 82 8q12 2 37.5 5.5t38.5 5.5q37 6 61 12l-26 -137l-29 -7.5t-31 -7.5q-47 -12 -82 -16q-16 -2 -49 -5t-47 -5 q-53 -6 -107 -6q-139 0 -206 49q-70 51 -70 155q0 6 1 18.5t1 20.5q0 18 6 41l131 672h-168z" />
<glyph unicode="u" d="M135 223q0 66 15 137l141 721h178l-131 -686l-6 -31.5t-6 -33.5q-2 -20 -2 -57t10 -72q8 -25 33 -47q18 -16 57 -27q31 -8 84 -8q61 0 118.5 22.5t100.5 65.5q51 51 78 104q31 63 47 144l121 626h180l-164 -850l-7 -33.5t-7 -37.5q-8 -55 -12 -72q-4 -18 -5.5 -32.5 t-3.5 -24.5q0 -6 -1 -13.5t-2 -11.5t-1 -6h-170q0 12 2 27q0 4 3 22.5t6 28.5l8 57q2 12 6 27.5t4 21.5h-4q-37 -49 -74 -84q-47 -43 -84 -65q-39 -23 -102 -41q-51 -14 -125 -14q-145 0 -215 59t-70 184z" />
<glyph unicode="v" d="M174 1081h203l131 -702q2 -14 6 -55q2 -20 6 -65.5t6 -65.5q0 -8 1 -25.5t3 -26.5l12.5 25.5t12.5 26.5l33 65l33 64l28 55l414 704h201l-654 -1081h-213z" />
<glyph unicode="w" d="M98 0l29 1081h176l-24 -606q0 -10 -4.5 -67.5t-6.5 -90.5q-2 -16 -5 -47.5t-3 -46.5q-2 -39 -10 -73l39 86l33 71q6 10 14 28.5t12 26.5l217 424h195l47 -424q2 -8 3 -26.5t1 -28.5q0 -12 1 -35.5t3 -35.5q2 -14 3 -43t1 -43q2 12 10.5 37.5t10.5 35.5l26 94 q8 27 17.5 51.5t13.5 39.5q8 25 12 41t9 26l219 606h176l-400 -1081h-204l-52 471q-3 28 -6 61q-2 18 -4 34t-2 32l-6 76q-20 -49 -33 -74l-33 -68q-16 -35 -32 -65l-240 -467h-203z" />
<glyph unicode="x" d="M-10 0l522 555l-295 526h199l219 -419l379 419h200l-497 -524l311 -557h-201l-235 444l-410 -444h-192z" />
<glyph unicode="y" d="M-16 -414l24 135q25 -4 43 -4q8 0 21.5 -1t19.5 -1q78 0 160 60q80 59 154 186l26 49l-262 1071h192l142 -641q2 -8 5 -30.5t7 -36.5l16 -78q6 -35 13 -70q6 -31 6 -39q10 20 22 41l41 68l45 78l22.5 36.5t18.5 30.5l375 641h191l-666 -1081q-55 -94 -113 -176 q-53 -78 -114 -135q-51 -49 -125 -84q-63 -31 -144 -31q-43 0 -61 2t-59 10z" />
<glyph unicode="z" d="M43 0l27 137l835 805h-641l29 139h844l-27 -137l-840 -805h719l-26 -139h-920z" />
<glyph unicode="{" d="M213 461l25 137q57 4 104 14q51 12 96 41t76 72t43 104l70 353q14 66 47 125q31 55 78 96q41 37 104 59q61 23 123 23h264l-26 -139h-213q-43 0 -80 -11q-29 -8 -60 -35q-20 -18 -41 -59q-16 -35 -26 -90l-70 -346q-14 -68 -39 -105q-33 -47 -70 -79q-45 -39 -86 -58 q-47 -23 -88 -31v-2q29 -6 68 -28q37 -20 59 -45q27 -31 41 -64q14 -35 15 -84v-26q0 -6 -4 -27l-68 -346q-4 -29 -6 -41t-2 -35q0 -66 33 -92q35 -29 106 -29h213l-27 -139h-264q-45 0 -100 18q-49 16 -78 46q-33 33 -47 73q-16 45 -16 96v35q0 6 1 11.5t3 12.5t2 11 l69 352q4 20 4 27v23q0 49 -18 83q-16 29 -53 54q-39 25 -76 33q-45 10 -86 12z" />
<glyph unicode="|" d="M530 -426v1911h166v-1911h-166z" />
<glyph unicode="}" d="M-20 -426l26 139h213q90 0 141 45q45 39 68 152l70 346q12 61 39 104q28 46 67 80q45 39 86 58q55 27 90 32v2q-37 10 -67 27q-33 18 -58 45q-27 29 -41 66q-16 39 -16 82q0 4 1 12t1 12q0 18 2 29l70 346q2 14 6 39q2 12 2 35q0 61 -37 92q-35 29 -106 29h-213l26 139 h264q114 0 179 -62q66 -61 65 -170q0 -6 -1 -17t-1 -17q0 -8 -4 -37l-70 -353q-4 -20 -4 -26q0 -4 -1 -11.5t-1 -11.5q0 -45 21 -82q18 -35 51 -55q39 -25 76 -33q43 -10 88 -12l-27 -137q-55 -4 -102 -15q-51 -12 -97 -40q-49 -31 -75 -70q-33 -47 -45 -107l-68 -352 q-12 -66 -47 -123q-37 -61 -78 -96q-45 -39 -106.5 -61.5t-122.5 -22.5h-264z" />
<glyph unicode="~" d="M117 580l26 143q68 43 129 61q74 23 152 23q76 0 154 -23q31 -8 141 -49q35 -14 90 -30q45 -14 96 -15q68 0 135 25q63 23 127 67l-28 -149q-41 -25 -70 -37q-37 -16 -65 -25q-45 -12 -68 -14q-45 -4 -74 -4q-66 0 -137 22q-45 14 -135 48q-117 45 -209 45q-37 0 -72 -6 q-45 -8 -65 -17q-31 -12 -64 -29q-26 -11 -63 -36z" />
<glyph unicode="&#xa0;" />
<glyph unicode="&#xa2;" d="M141 510q0 74 15 145q20 109 71 215q47 96 115 164q66 66 160 111q82 39 194 49l37 184h127l-35 -184q86 -6 146 -33q61 -29 102 -71q41 -45 60 -99q20 -61 20 -119l-188 -14q0 45 -13 82q-12 39 -41 64q-27 25 -73 40q-41 14 -105 15q-156 0 -256 -101 q-98 -98 -135 -290q-2 -6 -6 -32t-6 -38q-2 -23 -2 -61q0 -131 65 -201q66 -68 189 -68q111 0 196.5 55.5t122.5 161.5l180 -12q-20 -59 -61 -119q-37 -55 -100.5 -104t-133.5 -78q-74 -29 -168 -39l-36 -194h-129l39 194q-92 6 -156 37q-70 33 -109 78q-45 51 -65.5 114.5 t-20.5 147.5z" />
<glyph unicode="&#xa3;" d="M-49 0l31 154q39 18 86 47q43 27 73 57q33 33 58 86q23 47 39 127l26 141h-184l26 142h187l43 221q18 92 57 164q39 74 101 125q61 52 147 79q82 27 193 27q78 0 135 -14q61 -15 104 -43q45 -29 74 -74t35 -98l-187 -58q-8 63 -61 95q-55 33 -131 32q-123 0 -193 -57 q-72 -59 -96 -182l-41 -217h408l-27 -142h-410l-26 -139q-10 -45 -29 -106q-14 -43 -41 -88q-20 -33 -61 -68t-84 -53h600q59 0 92 26q31 25 53 80l164 -24q-25 -57 -41 -86q-25 -43 -57 -76q-35 -35 -80 -58q-41 -20 -103 -20h-880z" />
<glyph unicode="&#xa5;" d="M88 256l29 143h381l26 138h-383l29 143h319l-280 670h199l241 -619l486 619h198l-542 -670h321l-29 -143h-383l-24 -138h383l-29 -143h-383l-49 -256h-178l49 256h-381z" />
<glyph unicode="&#xa9;" d="M31 762q0 186 47 323q47 135 125 224q84 92 184 133q108 43 227 43q120 0 228 -43q100 -41 184 -133q78 -88 125 -224q45 -133 45 -323.5t-45 -323.5q-47 -139 -125 -225q-84 -92 -184 -133q-102 -41 -227.5 -41t-227.5 41q-100 41 -184 133q-78 86 -125 225 q-47 138 -47 324zM127 762q0 -178 37 -289q39 -117 104 -194q63 -76 156 -111q96 -37 190.5 -37t190.5 37q88 33 156 111q68 76 106 194q39 117 39 289q0 168 -39 285q-39 119 -106.5 194.5t-155.5 112.5q-84 35 -190.5 35t-190.5 -35q-94 -39 -156 -113q-66 -78 -104 -194 q-37 -111 -37 -285zM268 764q0 94 23 174q23 84 63 135q39 51 109 84q66 31 151 31q68 0 117 -19q53 -20 86 -46.5t60 -67.5q29 -41 41 -76l-113 -35q-8 23 -27 51q-16 25 -39 45q-20 18 -53 31q-27 10 -70 10q-53 0 -98 -22q-43 -20 -69 -64q-27 -41 -39.5 -100t-12.5 -131 q0 -76 14.5 -133.5t43.5 -102.5q29 -43 69 -67q43 -25 99 -25q37 0 71 15q25 10 56 36q23 20 39 49t28 58l117 -37q-12 -29 -45 -82q-25 -39 -64 -72q-41 -35 -86 -51q-49 -18 -116 -18q-90 0 -158 31q-63 29 -108.5 90t-65.5 135q-23 84 -23 174z" />
<glyph unicode="&#xad;" d="M319 465l31 160h559l-30 -160h-560z" />
<glyph unicode="&#xae;" d="M31 762q0 186 47 323q47 135 125 224q84 92 184 133q108 43 227 43q120 0 228 -43q100 -41 184 -133q78 -88 125 -224q45 -133 45 -323.5t-45 -323.5q-47 -139 -125 -225q-84 -92 -184 -133q-102 -41 -227.5 -41t-227.5 41q-100 41 -184 133q-78 86 -125 225 q-47 138 -47 324zM127 762q0 -178 37 -289q39 -117 104 -194q63 -76 156 -111q96 -37 190.5 -37t190.5 37q88 33 156 111q68 76 106 194q39 117 39 289q0 168 -39 285q-39 119 -106.5 194.5t-155.5 112.5q-84 35 -190.5 35t-190.5 -35q-94 -39 -156 -113q-66 -78 -104 -194 q-37 -111 -37 -285zM328 342v832h307q141 0 217 -63.5t76 -172.5q0 -104 -51 -164q-55 -63 -138 -82l222 -350h-146l-199 338h-161v-338h-127zM455 774h182q80 0 123 43q41 41 41 119q0 68 -47 104q-43 35 -129 35h-170v-301z" />
<glyph unicode="&#xb4;" d="M530 1200l5 21l274 239h197l-7 -28l-346 -232h-123z" />
<glyph unicode="&#x2000;" horiz-adv-x="741" />
<glyph unicode="&#x2001;" horiz-adv-x="1482" />
<glyph unicode="&#x2002;" horiz-adv-x="741" />
<glyph unicode="&#x2003;" horiz-adv-x="1482" />
<glyph unicode="&#x2004;" horiz-adv-x="493" />
<glyph unicode="&#x2005;" horiz-adv-x="370" />
<glyph unicode="&#x2006;" horiz-adv-x="245" />
<glyph unicode="&#x2007;" horiz-adv-x="245" />
<glyph unicode="&#x2008;" horiz-adv-x="184" />
<glyph unicode="&#x2009;" horiz-adv-x="294" />
<glyph unicode="&#x200a;" horiz-adv-x="81" />
<glyph unicode="&#x2010;" d="M319 465l31 160h559l-30 -160h-560z" />
<glyph unicode="&#x2011;" d="M319 465l31 160h559l-30 -160h-560z" />
<glyph unicode="&#x2012;" d="M319 465l31 160h559l-30 -160h-560z" />
<glyph unicode="&#x2013;" d="M154 451l24 137h889l-27 -137h-886z" />
<glyph unicode="&#x2014;" d="M-27 451l27 137h1247l-26 -137h-1248z" />
<glyph unicode="&#x2018;" d="M461 862l430 623h123l-289 -623h-264z" />
<glyph unicode="&#x2019;" d="M463 862l289 623h264l-430 -623h-123z" />
<glyph unicode="&#x201c;" d="M240 862l432 623h123l-289 -623h-266zM680 862l430 623h123l-289 -623h-264z" />
<glyph unicode="&#x201d;" d="M242 862l288 623h265l-430 -623h-123zM680 862l289 623h266l-432 -623h-123z" />
<glyph unicode="&#x2022;" d="M358 627q0 6 1 15t1 13q0 6 5 27q12 61 41 106q31 49 75 89q41 35 98.5 57t110.5 22q51 0 94 -18q51 -20 74 -45q31 -31 49 -72q16 -35 17 -88q0 -33 -4 -51q-12 -57 -46 -109q-37 -57 -77 -90q-49 -39 -101 -59q-57 -23 -112 -23q-57 0 -92 17q-39 18 -70 49 q-35 35 -47 70q-17 45 -17 90z" />
<glyph unicode="&#x2026;" d="M12 0l43 219h174l-43 -219h-174zM424 0l43 219h172l-43 -219h-172zM834 0l43 219h174l-43 -219h-174z" />
<glyph unicode="&#x202f;" horiz-adv-x="294" />
<glyph unicode="&#x205f;" horiz-adv-x="370" />
<glyph unicode="&#x20ac;" d="M76 461l26 143h119q2 14 6 39l6 37q4 12 9 43q2 10 5 18.5t5 16.5h-119l29 141h129q74 236 221 352q150 119 379 119q55 0 104 -6q45 -6 92 -23q57 -20 84 -34q33 -18 76 -54l-108 -139q-16 14 -54 39q-23 14 -61 31q-35 14 -70 22q-33 8 -80 8q-76 0 -131 -14 q-66 -18 -108 -49q-51 -39 -86 -96q-43 -70 -68 -158h461l-27 -139h-475q-6 -27 -8 -37q-4 -16 -8 -41q-2 -8 -5 -22.5t-3 -18.5l-4 -35h475l-29 -141h-459q-4 -25 -4 -35v-35q0 -66 15 -110q14 -47 45 -80q29 -31 82 -51q43 -16 120 -17q57 0 99 8q46 9 86 25q45 16 76 33 q20 10 36.5 20l32.5 19l51 -136q-55 -33 -96 -51q-70 -31 -98 -39q-51 -14 -109 -24q-61 -10 -117 -10q-109 0 -190 28q-74 27 -129 84q-45 49 -72 129q-25 77 -24 172q0 23 4 68h-131z" />
<glyph unicode="&#x2122;" d="M4 1391v92h457v-92h-174v-549h-113v549h-170zM518 842v641h158l182 -465l4 -8l4 -13q4 -8 6 -14q27 70 29 76t6 14t6 14q6 14 9 25q2 4 5 11t3 10l4 8l137 342h154v-641h-107v352v160l-6 -19q-2 -8 -4 -14q-2 -2 -2 -6t-2 -6l-191 -467h-90l-135 342l-10 30 q-4 10 -10 26.5t-13 33.5q-27 66 -30 80v-43v-469h-107z" />
<glyph unicode="&#xe000;" horiz-adv-x="1080" d="M0 1080h1080v-1080h-1080v1080z" />
<glyph unicode="&#xf001;" d="M131 0l184 950h-151l24 131h154l23 123q14 66 32 109q25 55 58 88q39 39 92 59q57 23 135 23q20 0 65.5 -4t61.5 -9l-29 -137l-14 2q-14 2 -23 4q-14 2 -41 2q-40 0 -67 -12q-31 -14 -45 -31q-18 -23 -31 -51q-6 -16 -18 -67l-21 -99h211l-24 -131h-211l-185 -950h-180z M776 0l209 1081h180l-209 -1081h-180zM1030 1313l35 172h178l-33 -172h-180z" />
<glyph unicode="&#xfb01;" d="M131 0l184 950h-151l24 131h154l23 123q14 66 32 109q25 55 58 88q39 39 92 59q57 23 135 23q20 0 65.5 -4t61.5 -9l-29 -137l-14 2q-14 2 -23 4q-14 2 -41 2q-40 0 -67 -12q-31 -14 -45 -31q-18 -23 -31 -51q-6 -16 -18 -67l-21 -99h211l-24 -131h-211l-185 -950h-180z M776 0l209 1081h180l-209 -1081h-180zM1030 1313l35 172h178l-33 -172h-180z" />
<glyph unicode="&#xf002;" d="M131 0l184 950h-151l24 131h154l23 123q14 66 32 109q25 55 58 88q39 39 92 59q57 23 135 23q20 0 65.5 -4t61.5 -9l-29 -137l-14 2q-14 2 -23 4q-14 2 -41 2q-40 0 -67 -12q-31 -14 -45 -31q-18 -23 -31 -51q-6 -16 -18 -67l-21 -99h211l-24 -131h-211l-185 -950h-180z M776 0l289 1485h178l-287 -1485h-180z" />
<glyph unicode="&#xfb02;" d="M131 0l184 950h-151l24 131h154l23 123q14 66 32 109q25 55 58 88q39 39 92 59q57 23 135 23q20 0 65.5 -4t61.5 -9l-29 -137l-14 2q-14 2 -23 4q-14 2 -41 2q-40 0 -67 -12q-31 -14 -45 -31q-18 -23 -31 -51q-6 -16 -18 -67l-21 -99h211l-24 -131h-211l-185 -950h-180z M776 0l289 1485h178l-287 -1485h-180z" />
<glyph unicode="&#xfb03;" horiz-adv-x="3686" d="M2497 0l27 141h421l156 799h-319l26 141h500l-182 -940h381l-29 -141h-981zM3148 1292l37 193h201l-37 -193h-201zM1444 940l29 141h262l4 27q23 104 57 172q37 72 95 117q55 43 141 65.5t198 22.5q8 0 31 -1t37 -1q27 0 80 -4l38.5 -5.5t35.5 -3.5l34 -5l21 -3l-29 -143 q-6 0 -12 1t-17.5 2t-21.5 1q-49 4 -76 6q-53 4 -73 4q-14 0 -33 1t-23 1q-59 0 -116 -10q-51 -8 -89 -37q-37 -28 -61 -74q-25 -47 -41 -122l-2 -11h492l-27 -141h-492l-182 -940h-180l182 940h-262zM215 940l29 141h262l4 27q23 104 57 172q37 72 95 117q55 43 141 65.5 t198 22.5q8 0 31 -1t37 -1q27 0 80 -4l38.5 -5.5t35.5 -3.5l34 -5l21 -3l-29 -143q-6 0 -12 1t-17.5 2t-21.5 1q-49 4 -76 6q-53 4 -73 4q-14 0 -33 1t-23 1q-59 0 -116 -10q-51 -8 -89 -37q-37 -28 -61 -74q-25 -47 -41 -122l-2 -11h492l-27 -141h-492l-182 -940h-180 l182 940h-262z" />
<glyph unicode="&#xfb04;" horiz-adv-x="3686" d="M2487 0l28 141h422l234 1200h-289l27 144h469l-261 -1344h379l-26 -141h-983zM1444 940l29 141h262l4 27q23 104 57 172q37 72 95 117q55 43 141 65.5t198 22.5q8 0 31 -1t37 -1q27 0 80 -4l38.5 -5.5t35.5 -3.5l34 -5l21 -3l-29 -143q-6 0 -12 1t-17.5 2t-21.5 1 q-49 4 -76 6q-53 4 -73 4q-14 0 -33 1t-23 1q-59 0 -116 -10q-51 -8 -89 -37q-37 -28 -61 -74q-25 -47 -41 -122l-2 -11h492l-27 -141h-492l-182 -940h-180l182 940h-262zM215 940l29 141h262l4 27q23 104 57 172q37 72 95 117q55 43 141 65.5t198 22.5q8 0 31 -1t37 -1 q27 0 80 -4l38.5 -5.5t35.5 -3.5l34 -5l21 -3l-29 -143q-6 0 -12 1t-17.5 2t-21.5 1q-49 4 -76 6q-53 4 -73 4q-14 0 -33 1t-23 1q-59 0 -116 -10q-51 -8 -89 -37q-37 -28 -61 -74q-25 -47 -41 -122l-2 -11h492l-27 -141h-492l-182 -940h-180l182 940h-262z" />
</font>
</defs>
</svg>
